Ссылка на приватное зеркало нашего сайта всего за 1$. Внимание количество ограничено!!!

2 сезон

iTunes

1 сезон

1

2 сезон

2 сезон

iTunes

1 сезон

RePack

30

Ultimate

ВАЖНО

ИГРА 18+

pack

RePack

MK11
pack

Забери бонус

RePack

jed

!!Акция!!

Alien_Rage

RePack

fifa19

RePack

Assassins Creed: Odyssey

RePack

NEED FOR SPEED™ PAYBACK

4 сезон

9 сезон

Бесстыжие 9 сезон

Все сериалы

все сериалы на PB.wtf

RePack

FAR CRY 5
  

Плащ и Кинжал / Cloak & Dagger / Сезон: 2 / Серии: 1-10 из 10 (Алекс Гарсиа Лопес, Питер Хор, Эми Канаан Манн) [2019, фантастика, боевик, драма, WEB-DL 1080p] DUB [Невафильм] pb.wtf

Плащ и Кинжал через торрент pb.wtf

Размер: 22.82 GB | Добавлен: 1 год 5 мес. назад | Торрент скачан:12 раз
Скачать  

06-04-2019 04:05 Плащ и Кинжал Скачать торрент  

Плащ и Кинжал / Cloak & Dagger Год выпуска: 2019
Страна: США
Жанр: фантастика, боевик, драма
Продолжительность: 00:49:15
Перевод: Профессиональный (дублированный) | Невафильм
Субтитры: Русские (Forced), английские (SDH)

Режиссёр: Алекс Гарсиа Лопес, Питер Хор, Эми Канаан Манн

В ролях:

Оливия Холт, Обри Джозеф, Глория Рубен, Дж.Д. Эвермор, Майлз Массенден, Андреа Рот, Эмма Лахана, Ноэль Рени Берси, Уэйн Пер, Карл Лундстедт

Описание:

Молодежный фантастический сериал, созданный по мотивам одноименной серии комиксов Marvel. В качестве одного из продюсеров проекта выступил легендарный Стэн Ли – создатель Человека-паука, Людей Икс, Доктора Стрэнджа, Железного человека, Сорвиголовы, Тора и многих других супергероев. Тэнди Боуэн (Оливия Холт) – красивая девушка, которая промышляет воровством: она мечтает скопить побольше денег, чтобы навсегда сбежать из-под опеки своей эгоистичной матери. Тайрон Джонсон (Обри Джозеф) – замкнутый подросток-афроамериканец, выросший в бедном районе. Случайная встреча на школьной вечеринке изменит жизнь обоих: вскоре Тэнди и Тайрон обнаружат у себя сверхспособности, которыми они пока не в силах управлять. Тэнди способна генерировать световые кинжалы, а Тайрон может перемещаться в пространстве с помощью некой темной энергии. Разгадка удивительных способностей подростков кроется в их общем прошлом – роковой штормовой ночи, когда Тэнди потеряла отца, а Тайрон – брата. Постепенно Тэнди и Тайрон понимают, что им лучше держаться вместе, ведь только так они смогут научиться управлять своими силами.




Качество: WEB-DL 1080p |
Контейнер: MKV

Видео: MPEG-4 AVC, 1920x1080 (16:9), 23.976 fps, 6000 Kbps, 0.119 bits/pixel
Аудио 1: 48 kHz, 48 kHz, AC3, 6 ch, 384 kbps | Rus
Аудио 2: 48 kHz, E-AC3, 6 ch, 640 kbps | Eng


Спасибо:
01. Restless Energy
02. White Lines
03. Shadow Selves
04. Rabbit Hold
05. Alignment Chart
06.
07.
08.
09.
10.
Полное имя : D:\RELEASE\Marvels.Cloak.and.Dagger.S02.1080p.WEB-DL.DUB.EniaHD\Marvels.Cloak.and.Dagger.S02E01.Restless.Energy.1080p.WEB-DL.DUB.EniaHD.mkv
Формат : Matroska
Версия формата : Version 4
Размер файла : 2,15 Гбайт
Продолжительность : 42 м. 27 с.
Общий поток : 7241 Кбит/сек
Название фильма : Неприкаянная энергия
Дата кодирования : UTC 2019-05-01 11:01:26
Программа кодирования : mkvmerge v32.0.0 ('Astral Progressions') 32-bit
Библиотека кодирования : libebml v1.3.7 + libmatroska v1.5.0
Обложка : Yes
Attachments : cover.marvel's.cloak.&.dagger.s02.jpg

Видео
Идентификатор : 1
Формат : AVC
Формат/Информация : Advanced Video Codec
Профиль формата : High@L4
Настройки формата : CABAC / 4 Ref Frames
Параметр CABAC формата : Да
Параметр RefFrames формата : 4 кадра
Идентификатор кодека : V_MPEG4/ISO/AVC
Продолжительность : 42 м. 27 с.
Вид битрейта : Постоянный
Битрейт : 6202 Кбит/сек
Номинальный битрейт : 10000 Кбит/сек
Ширина : 1920 пикселей
Высота : 1080 пикселей
Соотношение сторон : 16:9
Режим частоты кадров : Постоянный
Частота кадров : 23,976 (24000/1001) кадра/сек
Цветовое пространство : YUV
Субдискретизация насыщенности : 4:2:0
Битовая глубина : 8 бит
Тип развёртки : Прогрессивная
Бит/(Пиксели*Кадры) : 0.125
Размер потока : 1,84 Гбайт (86%)
Язык : English
Default : Да
Forced : Нет
Цветовой диапазон : Limited
Основные цвета : BT.709
Характеристики трансфера : BT.709
Коэффициенты матрицы : BT.709

Аудио #1
Идентификатор : 2
Формат : AC-3
Формат/Информация : Audio Coding 3
Коммерческое название : Dolby Digital
Идентификатор кодека : A_AC3
Продолжительность : 42 м. 27 с.
Вид битрейта : Постоянный
Битрейт : 384 Кбит/сек
Каналы : 6 каналов
ChannelLayout : L R C LFE Ls Rs
Частота : 48,0 КГц
Частота кадров : 31,250 кадров/сек (1536 SPF)
Битовая глубина : 16 бит
Метод сжатия : С потерями
Размер потока : 117 Мбайт (5%)
Заголовок : AC3 5.1 @ 384 kbps - DUB, Невафильм
Язык : Russian
ServiceKind/String : Complete Main
Default : Да
Forced : Нет

Аудио #2
Идентификатор : 3
Формат : E-AC-3
Формат/Информация : Enhanced AC-3
Коммерческое название : Dolby Digital Plus
Идентификатор кодека : A_EAC3
Продолжительность : 42 м. 27 с.
Вид битрейта : Постоянный
Битрейт : 640 Кбит/сек
Каналы : 6 каналов
ChannelLayout : L R C LFE Ls Rs
Частота : 48,0 КГц
Частота кадров : 31,250 кадров/сек (1536 SPF)
Метод сжатия : С потерями
Размер потока : 194 Мбайт (9%)
Заголовок : E-AC3 5.1 @ 640 kbps - Original
Язык : English
ServiceKind/String : Complete Main
Default : Нет
Forced : Нет

Текст #1
Идентификатор : 4
Формат : UTF-8
Идентификатор кодека : S_TEXT/UTF8
Идентификатор кодека/Информация : UTF-8 Plain Text
Продолжительность : 6 м. 57 с.
Битрейт : 0 бит/сек
ElementCount : 2
Размер потока : 50,0 байт (0%)
Заголовок : Forced
Язык : Russian
Default : Да
Forced : Да

Текст #2
Идентификатор : 5
Формат : UTF-8
Идентификатор кодека : S_TEXT/UTF8
Идентификатор кодека/Информация : UTF-8 Plain Text
Продолжительность : 42 м. 19 с.
Битрейт : 82 бит/сек
ElementCount : 793
Размер потока : 25,5 Кбайт (0%)
Заголовок : SDH
Язык : English
Default : Нет
Forced : Нет
pb.wtf



Скачать Плащ и Кинжал через торрент https://www.thetvdb.com/banners/graphical/5c5cc9f52a17a.jpg Скачать фильм Плащ и Кинжал через торрент бесплантно в хорошем качестве Описание: Молодежный фантастический сериал, созданный по мотивам одноименной серии комиксов Marvel. В качестве одного из продюсеров проекта ... 7.8 10 4
Торрент: Зарегистрирован [2019-06-03 18:37] · скачан: 12 раз
Статус: √ проверено
Размер: 22.82 GB
Как cкачать? Как скачать Плащ и Кинжал через торрент | qTorrent

28-11-2019 20:33  

Отключить всю рекламу на сайте

    Дорогой пользователь! Огромная просьба, поблагодарите релизера, оцените раздачу и оставьте свои комментарий, если Вы скачали Плащ и Кинжал через торрент бесплатно! Внесите свою лепту в развитие PiratBit!
    Комментировать посты могут только пользователи прошедшие не сложную регистрацию
    Показать сообщения:    

    Плащ и Кинжал через торрент
    Скачать бесплатно Плащ и Кинжал
    Плащ и Кинжал скачать торрент
    Плащ и Кинжал смотреть онлайн
    Cкачать фильм Плащ и Кинжал бесплатно
    Плащ и Кинжал скачать торрент в хорошем качестве
    Плащ и Кинжал смотреть онлайн бесплатно в хорошем качестве


    Вы не можете начинать темы
    Вы не можете отвечать на сообщения
    Вы не можете редактировать свои сообщения
    Вы не можете удалять свои сообщения
    Вы не можете голосовать в опросах
    Вы не можете прикреплять файлы к сообщениям
    Вы можете скачивать файлы