Ссылка на приватное зеркало всего за 1$. Внимание количество ограничено!!!

OK

1+1

iTunes

мы

OK

1

WEB-DLRip

Джокер

Пифагор

Ведьмак / The Witcher сериал

iTunes

ПШазам

ОК

Оно 2

iTunes

30
pack

Вам бонус

ВАЖНО

!!Акция!!

Alien_RageХит недели

RePack

Resident Evil 21

ИГРА 18+

pack

RePack

jed

RePack

fifa19

RePack

Assassins Creed: Odyssey

RePack

NEED FOR SPEED™ PAYBACK

4 сезон

9 сезон

Бесстыжие 9 сезон

Все сериалы

все сериалы на PB.wtf

RePack

FAR CRY 5
  

Блестяще / Le brio (Иван Атталь) [2017, драма, комедия, BDRip 720p] MVO ["Синема УС"] pb.wtf

Блестяще через торрент pb.wtf

Размер: 4.6 GB | Добавлен: 9 мес. назад | Торрент скачан:14 раз
Скачать  

06-04-2019 07:08 Блестяще Скачать торрент  

Блестяще / Le brio
Год выпуска: 2017
Страна: Франция, Бельгия
Жанр: драма, комедия
Продолжительность: 01:34:41
Перевод: Любительский (многоголосый) | "Синема УС"
Субтитры: отсутствуют

Режиссер: Иван Атталь

rating

В ролях:

Даниель Отой, Камелия Джордана, Ясин Уиша, Нозха Кхуадра, Николя Вод, Жан-Баптист Лафарж, Виржиль Леклер, Зохра Бенали, Дэмиен Занозо, Жан-Филипп Пюмартин

Описание:

Нила - алжирка, проживающая в пригороде Парижа. С отличием закончив школу, Нила поступает на юридический факультет престижного парижского вуза. В первый же день занятий у девушки возникает конфликт на почве расизма с профессором Пьером Мазаром, грозой всех студентов. Чтобы оправдаться, профессор соглашается подготовить Нилу к ораторскому конкурсу.

Качество: BDRip 720p
Формат: MKV

Видео: h.264,6 440 Кбит/с, 1280x530
Аудио: Русский (AC3, 2 ch, 448 Кбит/с)
скриншот  скриншот  скриншот  

Общее
Уникальный идентификатор : 254509554542904799905519686768519834372 (0xBF78C1D958863327BB4963CD9DFC6B04)
Полное имя : D:\Le.Brio.2017.P.BDRip.72Op.mkv
Формат : Matroska
Версия формата : Version 2
Размер файла : 4,60 Гбайт
Продолжительность : 1 ч. 35 м.
Режим общего битрейта : Переменный
Общий поток : 6890 Кбит/сек
Дата кодирования : UTC 2019-04-05 11:48:02
Программа кодирования : mkvmerge v8.3.0 ('Over the Horizon') 64bit
Библиотека кодирования : libebml v1.3.1 + libmatroska v1.4.2

Видео
Идентификатор : 1
Формат : AVC
Формат/Информация : Advanced Video Codec
Профиль формата : High@L4.1
Параметр CABAC формата : Да
Параметр RefFrames формата : 4 кадра
Идентификатор кодека : V_MPEG4/ISO/AVC
Продолжительность : 1 ч. 35 м.
Вид битрейта : Переменный
Битрейт : 6440 Кбит/сек
Максимальный битрейт : 7500 Кбит/сек
Ширина : 1280 пикселей
Высота : 530 пикселей
Соотношение сторон : 2,40:1
Режим частоты кадров : Постоянный
Частота кадров : 23,976 (24000/1001) кадра/сек
Стандарт вещания : Component
Цветовое пространство : YUV
Субдискретизация насыщенности : 4:2:0
Битовая глубина : 8 бит
Тип развёртки : Прогрессивная
Бит/(Пиксели*Кадры) : 0.388
Размер потока : 4,21 Гбайт (92%)
Default : Да
Forced : Нет
Цветовой диапазон : Limited
Основные цвета : BT.709
Характеристики трансфера : BT.709
Коэффициенты матрицы : BT.709

Аудио
Идентификатор : 2
Формат : AC-3
Формат/Информация : Audio Coding 3
Расширение режима : CM (complete main)
Параметр Endianness формата : Big
Идентификатор кодека : A_AC3
Продолжительность : 1 ч. 35 м.
Вид битрейта : Постоянный
Битрейт : 448 Кбит/сек
Каналы : 2 канала
Расположение каналов : Front: L R
Частота : 48,0 КГц
Частота кадров : 31,250 кадров/сек (1536 spf)
Метод сжатия : С потерями
Размер потока : 306 Мбайт (7%)
Default : Да
Forced : Нет

pb.wtf



Скачать Блестяще через торрент https://d.radikal.ru/d06/1904/ad/19d07f8437ff.jpg Скачать фильм Блестяще через торрент бесплантно в хорошем качестве Описание: Нила - алжирка, проживающая в пригороде Парижа. С отличием закончив школу, Нила поступает на юридический факультет престижного ... 10 10 3
Торрент: Зарегистрирован [2019-04-06 07:08] · скачан: 14 раз
Статус: # сомнительно
Размер: 4.6 GB
Как cкачать? Как скачать Блестяще через торрент | qTorrent

% Раздел Тема Автор DL S | L
T Фильмы (мультфильмы) cо спонсором показа (Новинки AVI/MKV) [ 1.37 GB ] Блестяще / Le brio [2017 HDRip] MVO ["Синема УС"] bober100 Скачать
1 | 0

28-11-2019 20:33  

Отключить всю рекламу на сайте

    Дорогой пользователь! Огромная просьба, поблагодарите релизера, оцените раздачу и оставьте свои комментарий, если Вы скачали Блестяще через торрент бесплатно! Внесите свою лепту в развитие PiratBit!
    Комментировать посты могут только пользователи прошедшие не сложную регистрацию
    Показать сообщения:    

    Блестяще через торрент
    Скачать бесплатно Блестяще
    Блестяще скачать торрент
    Блестяще смотреть онлайн
    Cкачать фильм Блестяще бесплатно
    Блестяще скачать торрент в хорошем качестве
    Блестяще смотреть онлайн бесплатно в хорошем качестве


    Вы не можете начинать темы
    Вы не можете отвечать на сообщения
    Вы не можете редактировать свои сообщения
    Вы не можете удалять свои сообщения
    Вы не можете голосовать в опросах
    Вы не можете прикреплять файлы к сообщениям
    Вы можете скачивать файлы