новый адрес
Мега распродажа FORZA HORIZON 4 ULTIMATE+ВСЕ DLC+ОНЛАЙН всего за 499р. 349 руб. (супер цена). Внимание количество ограничено!!!

iTunes

1+1

iTunes

мы

iTunes

1

iTunes

Чернобыль

iTunes

Ральф против интернета

Лицензия

ПШазам

Лицензия

Игра престолов

Лицензия

30
pack

ВАЖНО

!!Акция!!

Alien_RageХит недели

RePack

Resident Evil 21

ИГРА 18+

pack

RePack

Metro:Exodus

!!Акция!!

Alien_Rage

RePack

fifa19

RePack

Assassins Creed: Odyssey

RePack

NEED FOR SPEED™ PAYBACK

3 сезон

9 сезон

Бесстыжие 9 сезон

Все сериалы

все сериалы на PB.wtf

RePack

FAR CRY 5
Ребята, катастрофически не хватает 1900р. для оплаты серверов за Октябрь (всвязи с блокировками трафик упал в 3 раза), 1-2р., выручайте.
  

Знакомьтесь, Балуев! (Виктор Комиссаржевский) [1963, СССР, драма, SATRip от AVP Studio] pb.wtf

Знакомьтесь, Балуев! через торрент pb.wtf

Размер: 745 MB | Добавлен: 7 мес. назад | Торрент скачан:3 раза
Скачать  

06-04-2019 08:12 Знакомьтесь, Балуев! Скачать торрент  

Знакомьтесь, Балуев!
Страна: СССР
Производство: Ленфильм

Жанр: драма
Год выпуска: 1963
Продолжительность: 01:35:46

Перевод: Не требуется
Cубтитры: нет
Оригинальная аудиодорожка: русский

Режиссер: Виктор Комиссаржевский

В ролях:
Иван Переверзев, Нина Ургант, Станислав Соколов, Светлана Дик, Павел Морозенко, Зинаида Кириенко, Анатолий Ромашин, Нелли Корнева, Павел Панков, Сергей Плотников, Сергей Блинников, Пантелеймон Крымов, Игорь Косухин, Аркадий Вовси...
Об актёрах подробней

Описание:
По одноименному роману Вадима Кожевникова.
О строителях газопроводной трассы, руководитель которой — Павел Гаврилович Балуев (москвич, бывающий дома только проездом), человек, обладающий лучшими качествами людей своего поколения.

Исходник: DVB
Качество видео: SATRip
Формат видео: AVI

Видео: 688x368 (1,85:1), 25,000 кадров/сек, XviD ~ 886 kbps avg, 0.140 bit/pixel
Аудио: 48 kHz, Dolby Digital AC3 2.0, 192 kbps

Раздача от:
Общее
Полное имя : Znakomtes,Baluev!1963.SATRip_[New-team]_by_AVP_Studio.avi
Формат : AVI
Формат/Информация : Audio Video Interleave
Размер файла : 745 Мбайт
Продолжительность : 1 ч. 35 м.
Общий поток : 1088 Кбит/сек
Программа кодирования : VirtualDubMod 1.5.10.3 | www.virtualdub-fr.org || (build 2550/release)
Библиотека кодирования : VirtualDubMod build 2550/release

Видео
Идентификатор : 0
Формат : MPEG-4 Visual
Профиль формата : Advanced Simple@L5
Настройки формата : BVOP1 / Custom Matrix
Параметр BVOP формата : 1
Параметр QPel формата : Нет
Параметр GMC формата : Без точки перехода
Параметр матрицы формата : Выборочная
Идентификатор кодека : XVID
Идентификатор кодека/Подсказка : XviD
Продолжительность : 1 ч. 35 м.
Битрейт : 886 Кбит/сек
Ширина : 688 пикселей
Высота : 368 пикселей
Соотношение сторон : 1,85:1
Частота кадров : 25,000 кадров/сек
Цветовое пространство : YUV
Субдискретизация насыщенности : 4:2:0
Битовая глубина : 8 бит
Тип развёртки : Прогрессивная
Метод сжатия : С потерями
Бит/(Пиксели*Кадры) : 0.140
Размер потока : 607 Мбайт (81%)
Библиотека кодирования : XviD 73

Аудио
Идентификатор : 1
Формат : AC-3
Формат/Информация : Audio Coding 3
Коммерческое название : Dolby Digital
Идентификатор кодека : 2000
Продолжительность : 1 ч. 35 м.
Вид битрейта : Постоянный
Битрейт : 192 Кбит/сек
Каналы : 2 канала
Channel layout : L R
Частота : 48,0 КГц
Частота кадров : 31,250 кадров/сек (1536 SPF)
Битовая глубина : 16 бит
Метод сжатия : С потерями
Размер потока : 132 Мбайт (18%)
Выравнивание : Разделение по промежуткам
Продолжительность промежутка : 40 мс. (1,00 видеокадр)
Время предзагрузки промежутка : 500 мс
pb.wtf



Скачать Знакомьтесь, Балуев! через торрент http://picplus.ru/img/1904/06/4f48f2b3.png Скачать фильм Знакомьтесь, Балуев! через торрент бесплантно в хорошем качестве Описание:По одноименному роману Вадима Кожевникова.О строителях газопроводной трассы, руководитель которой — Павел Гаврилович Балуев ... 5 10 1
Торрент: Зарегистрирован [2019-04-06 08:12] · скачан: 3 раз
Статус: √ проверено
Размер: 745 MB
Как cкачать? Как скачать Знакомьтесь, Балуев! через торрент | qTorrent

% Раздел Тема Автор DL S | L
Кино СССР [ 744 MB ] Знакомьтесь Балуев! [1963 СССР SATRip-AVC от AVP Studio] AVP Studio Скачать
1 | 0


>> Регистрируемся здесь <<






Отзывы и комментарии о схеме читаем и пишем здесь: ---> Отзывы и комментарии о схеме

Новые благодарочки в телеграм довольных пользователей:
скриншот   скриншот   скриншот   скриншот   скриншот
    Дорогой пользователь! Огромная просьба, поблагодарите релизера, оцените раздачу и оставьте свои комментарий, если Вы скачали Знакомьтесь, Балуев! через торрент бесплатно! Внесите свою лепту в развитие PiratBit!
    Комментировать посты могут только пользователи прошедшие не сложную регистрацию
    Показать сообщения:    

    Знакомьтесь, Балуев! через торрент
    Скачать бесплатно Знакомьтесь, Балуев!
    Знакомьтесь, Балуев! скачать торрент
    Знакомьтесь, Балуев! смотреть онлайн
    Cкачать фильм Знакомьтесь, Балуев! бесплатно
    Знакомьтесь, Балуев! скачать торрент в хорошем качестве
    Знакомьтесь, Балуев! смотреть онлайн бесплатно в хорошем качестве


    Вы не можете начинать темы
    Вы не можете отвечать на сообщения
    Вы не можете редактировать свои сообщения
    Вы не можете удалять свои сообщения
    Вы не можете голосовать в опросах
    Вы не можете прикреплять файлы к сообщениям
    Вы можете скачивать файлы