Ссылка на приватное зеркало всего за 1$. Внимание количество ограничено!!!

OK

1+1

iTunes

мы

OK

1

WEB-DLRip

Джокер

Пифагор

Ведьмак / The Witcher сериал

iTunes

ПШазам

ОК

Оно 2

iTunes

30
pack

Вам бонус

ВАЖНО

!!Акция!!

Alien_RageХит недели

RePack

Resident Evil 21

ИГРА 18+

pack

RePack

jed

RePack

fifa19

RePack

Assassins Creed: Odyssey

RePack

NEED FOR SPEED™ PAYBACK

4 сезон

9 сезон

Бесстыжие 9 сезон

Все сериалы

все сериалы на PB.wtf

RePack

FAR CRY 5
  

Любители / Amateurs / Amatörer (Габриэла Пихлер) [2018, драма, комедия, BDRip 720p] MVO ["Синема УС"] pb.wtf

Любители через торрент pb.wtf

Размер: 4.83 GB | Добавлен: 9 мес. назад | Торрент скачан:6 раз
Скачать  

06-04-2019 08:28 Любители Скачать торрент  

Любители / Amateurs / Amatörer Год выпуска: 2018
Страна: Швеция
Жанр: драма, комедия
Продолжительность: 01:38:14
Перевод: Любительский (многоголосый) | "Синема УС"
Субтитры: отсутствуют

Режиссер: Габриэла Пихлер

rating

В ролях:

Захраа Алдуджайли, Яра Алиадоттер, Фредрик Даль, Шада Исмаил, Мария Нора, Сюзанна Хедман, Ян Круземан, Мимми Фаст, Ханс Ноймайер, Ханс Андерссон

Описание:

Шведская провинция надеется заманить к себе сеть дешёвых магазинов и нанимает признанного режиссёра рекламы, чтобы создать городу достойный имидж. Но две смелые девушки из иммигрантских семей с помощью смартфонов и селфи-палок рассказывают, как дела обстоят на самом деле.

Качество: BDRip 720p
Формат: MKV

Видео: h.264,6 593 Кбит/с, 1280x692
Аудио#1: Русский (AC3, 2 ch, 448 Кбит/с)
скриншот  скриншот  скриншот  

Общее
Уникальный идентификатор : 221034904068658629028315505604216695370 (0xA649C6282508C0FBBD482FCAA80B2A4A)
Полное имя : D:\Amateurs.2018.P.BDRip.72Op.mkv
Формат : Matroska
Версия формата : Version 2
Размер файла : 4,83 Гбайт
Продолжительность : 1 ч. 38 м.
Режим общего битрейта : Переменный
Общий поток : 7043 Кбит/сек
Дата кодирования : UTC 2019-04-05 10:13:11
Программа кодирования : mkvmerge v8.3.0 ('Over the Horizon') 64bit
Библиотека кодирования : libebml v1.3.1 + libmatroska v1.4.2

Видео
Идентификатор : 1
Формат : AVC
Формат/Информация : Advanced Video Codec
Профиль формата : High@L4.1
Параметр CABAC формата : Да
Параметр RefFrames формата : 4 кадра
Идентификатор кодека : V_MPEG4/ISO/AVC
Продолжительность : 1 ч. 38 м.
Вид битрейта : Переменный
Битрейт : 6593 Кбит/сек
Максимальный битрейт : 7500 Кбит/сек
Ширина : 1280 пикселей
Высота : 692 пикселя
Соотношение сторон : 1,85:1
Режим частоты кадров : Постоянный
Частота кадров : 23,976 (24000/1001) кадра/сек
Стандарт вещания : Component
Цветовое пространство : YUV
Субдискретизация насыщенности : 4:2:0
Битовая глубина : 8 бит
Тип развёртки : Прогрессивная
Бит/(Пиксели*Кадры) : 0.304
Размер потока : 4,43 Гбайт (92%)
Default : Да
Forced : Нет
Цветовой диапазон : Limited
Основные цвета : BT.709
Характеристики трансфера : BT.709
Коэффициенты матрицы : BT.709

Аудио
Идентификатор : 2
Формат : AC-3
Формат/Информация : Audio Coding 3
Расширение режима : CM (complete main)
Параметр Endianness формата : Big
Идентификатор кодека : A_AC3
Продолжительность : 1 ч. 38 м.
Вид битрейта : Постоянный
Битрейт : 448 Кбит/сек
Каналы : 2 канала
Расположение каналов : Front: L R
Частота : 48,0 КГц
Частота кадров : 31,250 кадров/сек (1536 spf)
Метод сжатия : С потерями
Размер потока : 315 Мбайт (6%)
Default : Да
Forced : Нет

pb.wtf



Скачать Любители через торрент https://a.radikal.ru/a12/1904/fc/765217fd2bca.jpg Скачать фильм Любители через торрент бесплантно в хорошем качестве Описание: Шведская провинция надеется заманить к себе сеть дешёвых магазинов и нанимает признанного режиссёра рекламы, чтобы создать городу ... 10 10 3
Торрент: Зарегистрирован [2019-04-06 08:28] · скачан: 6 раз
Статус: # сомнительно
Размер: 4.83 GB
Как cкачать? Как скачать Любители через торрент | qTorrent

% Раздел Тема Автор DL S | L
T Фильмы (мультфильмы) cо спонсором показа (Новинки AVI/MKV) [ 1.46 GB ] Любители / Amateurs / Amatörer [2018 HDRip] MVO ["Синема УС"] bober100 Скачать
1 | 0

28-11-2019 20:33  

Отключить всю рекламу на сайте

    Дорогой пользователь! Огромная просьба, поблагодарите релизера, оцените раздачу и оставьте свои комментарий, если Вы скачали Любители через торрент бесплатно! Внесите свою лепту в развитие PiratBit!
    Комментировать посты могут только пользователи прошедшие не сложную регистрацию
    Показать сообщения:    

    Любители через торрент
    Скачать бесплатно Любители
    Любители скачать торрент
    Любители смотреть онлайн
    Cкачать фильм Любители бесплатно
    Любители скачать торрент в хорошем качестве
    Любители смотреть онлайн бесплатно в хорошем качестве


    Вы не можете начинать темы
    Вы не можете отвечать на сообщения
    Вы не можете редактировать свои сообщения
    Вы не можете удалять свои сообщения
    Вы не можете голосовать в опросах
    Вы не можете прикреплять файлы к сообщениям
    Вы можете скачивать файлы