Мега распродажа FORZA HORIZON 4 ULTIMATE+ВСЕ DLC+ОНЛАЙН всего за 499р. 349 руб. (супер цена). Внимание количество ограничено!!!

Лицензия

30

iTunes

мы

iTunes

1

1 сезон

Чернобыль

1 сезон

Ральф против интернета

MVO

Покемон. Детектив Пикачу

8 сезон

Игра престолов

iTunes

1+1

ИГРА 18+

pack

ВАЖНО

!!Акция!!

Alien_RageХит недели

RePack

Resident Evil 21
pack

RePack

Metro:Exodus

!!Акция!!

Alien_Rage

RePack

fifa19

RePack

Assassins Creed: Odyssey

RePack

NEED FOR SPEED™ PAYBACK

3 сезон

9 сезон

Бесстыжие 9 сезон

Все сериалы

все сериалы на PB.wtf

RePack

FAR CRY 5
Ребята, катастрофически не хватает 2730р. для оплаты серверов за МАЙ (всвязи с блокировками трафик упал в 3 раза), 1-2р., выручайте.
  

Кладбище домашних животных / Pet Sematary (Кевин Колш, Деннис Уидмайер) [2019, ужасы, триллер, TS 720p] DUB pb.wtf

Кладбище домашних животных через торрент pb.wtf

Раздают: 5 [ 0 KB/s ]
Размер: 2.73 GB | Добавлен: 2 мес. 20 д. назад | Торрент скачан:346 раз
Скачать  

06-04-2019 16:23 Кладбище домашних животных Скачать торрент  

Кладбище домашних животных / Pet Sematary Год выпуска: 2019
Страна: США
Жанр: ужасы, триллер
Продолжительность: 01:35:38
Перевод: Дублированный
Субтитры: отсутствуют

Режиссер: Кевин Колш, Деннис Уидмайер

rating

В ролях:

Джейсон Кларк, Эми Саймец, Джон Литгоу, Жете Лоранс, Хьюго Лавуа, Лукас Лавуа, Обсса Ахмед, Алисса Брук Ливайн, Мария Херрера, Фрэнк Скорпион

Описание:

Семья Луиса Крида переезжает в сельский дом, который, как выясняется, расположен по соседству с мрачным Кладбищем домашних животных. Именно здесь Луис хоронит кошку, любимицу семьи, погибшую под колесами грузовика. Эта смерть влечет за собой череду чудовищных событий, которые доказывают Кридам, что мертвые должны оставаться мертвыми...

Качество: TS 720p
Формат: MKV

Видео: 3702 Кбит/с, 1280x536
Аудио#1: Русский, (AC3, 2 ch, 384 Кбит/с)
скриншот  скриншот  скриншот  

Общее
Уникальный идентификатор : 183249031227996560425217632658994492152 (0x89DC7ACA7C7B17908400B3E7D1E7F2F8)
Полное имя : D:\KladBische.Dom.JiVoTniX.2O19.D.TS.72Op.mkv
Формат : Matroska
Версия формата : Version 2
Размер файла : 2,73 Гбайт
Продолжительность : 1 ч. 35 м.
Режим общего битрейта : Переменный
Общий поток : 4088 Кбит/сек
Дата кодирования : UTC 2019-04-06 09:42:59
Программа кодирования : mkvmerge v8.3.0 ('Over the Horizon') 64bit
Библиотека кодирования : libebml v1.3.1 + libmatroska v1.4.2

Видео
Идентификатор : 1
Формат : AVC
Формат/Информация : Advanced Video Codec
Профиль формата : High@L4.1
Параметр CABAC формата : Да
Параметр RefFrames формата : 4 кадра
Идентификатор кодека : V_MPEG4/ISO/AVC
Продолжительность : 1 ч. 35 м.
Вид битрейта : Переменный
Битрейт : 3702 Кбит/сек
Максимальный битрейт : 4000 Кбит/сек
Ширина : 1280 пикселей
Высота : 536 пикселей
Соотношение сторон : 2,40:1
Режим частоты кадров : Постоянный
Частота кадров : 23,976 (24000/1001) кадра/сек
Стандарт вещания : Component
Цветовое пространство : YUV
Субдискретизация насыщенности : 4:2:0
Битовая глубина : 8 бит
Тип развёртки : Прогрессивная
Бит/(Пиксели*Кадры) : 0.220
Размер потока : 2,42 Гбайт (89%)
Default : Да
Forced : Нет
Цветовой диапазон : Limited
Основные цвета : BT.709
Характеристики трансфера : BT.709
Коэффициенты матрицы : BT.709

Аудио
Идентификатор : 2
Формат : AC-3
Формат/Информация : Audio Coding 3
Расширение режима : CM (complete main)
Параметр Endianness формата : Big
Идентификатор кодека : A_AC3
Продолжительность : 1 ч. 35 м.
Вид битрейта : Постоянный
Битрейт : 384 Кбит/сек
Каналы : 2 канала
Расположение каналов : Front: L R
Частота : 48,0 КГц
Частота кадров : 31,250 кадров/сек (1536 spf)
Метод сжатия : С потерями
Размер потока : 263 Мбайт (9%)
Default : Да
Forced : Нет

pb.wtf



Скачать Кладбище домашних животных через торрент https://b.radikal.ru/b04/1904/93/49f4aca5463a.jpg Скачать фильм Кладбище домашних животных через торрент бесплантно в хорошем качестве Описание: Семья Луиса Крида переезжает в сельский дом, который, как выясняется, расположен по соседству с мрачным Кладбищем домашних ... 9 10 9
Info! Золотая раздача, скачанное не засчитывается.
Торрент: Зарегистрирован [2019-04-06 16:23] · скачан: 346 раз
Статус: T временная
Размер: 2.73 GB
Как cкачать? Как скачать Кладбище домашних животных через торрент | qTorrent

% Раздел Тема Автор DL S | L
T Фильмы (мультфильмы) cо спонсором показа (Новинки AVI/MKV) [ 1.37 GB ] Кладбище домашних животных / Pet Sematary [2019 HDTVRip] [DUB с TS] killermax2013 Скачать
27 | 0
T Фильмы (мультфильмы) cо спонсором показа (Новинки AVI/MKV) [ 1.37 GB ] Кладбище домашних животных / Pet Sematary [2019 TS] DUB bober100 Скачать
2 | 0
Фильмы [HD 720p, 1080p] (Хороший звук DUB, MVO) [ 21.01 GB ] Кладбище домашних животных / Pet Sematary [1989 BDRip 1080p] MVO DVO AVO VO msltel Скачать
1 | 0
Фильмы [HD 720p, 1080p] (Хороший звук DUB, MVO) [ 12.85 GB ] Кладбище домашних животных / Pet Sematary [1989 BDRip 720p] MVO DVO AVO VO msltel Скачать
1 | 0


>> Регистрируемся здесь <<






Отзывы и комментарии о схеме читаем и пишем здесь: ---> Отзывы и комментарии о схеме

Новые благодарочки в телеграм довольных пользователей:
скриншот   скриншот   скриншот   скриншот   скриншот

07-04-2019 11:35 Кладбище домашних животных Скачать торрент  

С кем по рекламе связаться на этом сайте?pb.wtf



07-04-2019 15:53 Кладбище домашних животных Скачать торрент  

Так,качество огонь,звук по ходу тоже отличный,нужно качать а потом,после просмотра пойти и кишки выблевать)))pb.wtf



08-04-2019 17:15 Кладбище домашних животных Скачать торрент  

Сань я теперь по каментам буду определять что ты в драва.pb.wtf



11-04-2019 05:47 Кладбище домашних животных Скачать торрент  

В кинотеатр на фильм пришло человек десять. К концу сеанса нас осталось трое. Самых блин стойких. Сюжет развивается так нудно, актеры играют так уныло, что хочется крикнуть киномеханику " Мужик, да перемотай ты вперед".pb.wtf



12-04-2019 02:44 Кладбище домашних животных Скачать торрент  

В который раз убеждаюсь, что лучше старых фильмов нет ни чего. После просмотра "Кладбище домашних животных" 2019 года осталось какое-то неприятное впечатление... И книгу и фильм перевернули с ног на голову. Смотрится, простите, как заурядный фильм ужасов. Как Кинг мог согласиться на такую адаптацию сценария, не понимаю...pb.wtf



    Дорогой пользователь! Огромная просьба, поблагодарите релизера, оцените раздачу и оставьте свои комментарий, если Вы скачали Кладбище домашних животных через торрент бесплатно! Внесите свою лепту в развитие PiratBit!
    Комментировать посты могут только пользователи прошедшие не сложную регистрацию
    Показать сообщения:    

    Кладбище домашних животных через торрент
    Скачать бесплатно Кладбище домашних животных
    Кладбище домашних животных скачать торрент
    Кладбище домашних животных смотреть онлайн
    Cкачать фильм Кладбище домашних животных бесплатно
    Кладбище домашних животных скачать торрент в хорошем качестве
    Кладбище домашних животных смотреть онлайн бесплатно в хорошем качестве


    Вы не можете начинать темы
    Вы не можете отвечать на сообщения
    Вы не можете редактировать свои сообщения
    Вы не можете удалять свои сообщения
    Вы не можете голосовать в опросах
    Вы не можете прикреплять файлы к сообщениям
    Вы можете скачивать файлы