Ссылка на приватное зеркало всего за 1$. Внимание количество ограничено!!!

iTunes

iTunes

iTunes

1

iTunes

iTunes

iTunes

WEBRip

iTunes

30
pack

$ от Little Big

ВАЖНО

!!Акция!!

Alien_RageХит недели

RePack

Resident Evil 21

ИГРА 18+

pack

RePack

jed

!!Акция!!

Alien_Rage

RePack

fifa19

RePack

Assassins Creed: Odyssey

RePack

NEED FOR SPEED™ PAYBACK

4 сезон

9 сезон

Бесстыжие 9 сезон

Все сериалы

все сериалы на PB.wtf

RePack

FAR CRY 5
  

Когда солнце встречает луну / Mou ri mou yue / When Sun Meets Moon (Бенни Лау) [2018, Мелодрама, BDRip 720p] MVO ["Синема УС"] pb.wtf

Когда солнце встречает луну через торрент pb.wtf

Размер: 4.83 GB | Добавлен: 1 год 3 мес. назад | Торрент скачан:5 раз
Скачать  

06-04-2019 17:57 Когда солнце встречает луну Скачать торрент  

Когда солнце встречает луну / Mou ri mou yue / When Sun Meets Moon Год выпуска: 2018
Страна: Гонконг
Жанр: Мелодрама
Продолжительность: 01:36:35
Перевод: Любительский (многоголосый) | "Синема УС"
Субтитры: отсутствуют

Режиссер: Бенни Лау

rating

В ролях: Кэти Тун, Даити Харасима

Описание: Судьба сводит Сон Чоу и Мун Вон во время того, как на всех улицах пропадает свет и остается только покидать свои дома и лицезреть красоту звезд. Девушка не может забыть о нем с самой первой встречи, а юноша всячески находит повод, чтобы проводить с ней вместе время. Однако, мама Мун категорически против их отношений, считая парня недостойным своей дочери и делает так, чтобы Сон перевёлся в другую школу. Сможет ли эта неприятность помешать влюбленным быть вместе?

Качество: BDRip 720p
Формат: MKV

Видео: h.264, 6 710 Кбит/с, 1280x544
Аудио#1: Русский (AC3, 2 ch, 448 Кбит/с)
скриншот  скриншот  скриншот  

Общее
Уникальный идентификатор : 211133580126037904630455756619347488006 (0x9ED6D93240A1C8B3AFB8968092556D06)
Полное имя : D:\When.sun.meets.moon.2018.P.BDRip.72Op.mkv
Формат : Matroska
Версия формата : Version 2
Размер файла : 4,83 Гбайт
Продолжительность : 1 ч. 36 м.
Режим общего битрейта : Переменный
Общий поток : 7160 Кбит/сек
Дата кодирования : UTC 2019-04-03 18:49:05
Программа кодирования : mkvmerge v8.3.0 ('Over the Horizon') 64bit
Библиотека кодирования : libebml v1.3.1 + libmatroska v1.4.2

Видео
Идентификатор : 1
Формат : AVC
Формат/Информация : Advanced Video Codec
Профиль формата : High@L4.1
Параметр CABAC формата : Да
Параметр RefFrames формата : 4 кадра
Идентификатор кодека : V_MPEG4/ISO/AVC
Продолжительность : 1 ч. 36 м.
Вид битрейта : Переменный
Битрейт : 6710 Кбит/сек
Максимальный битрейт : 7500 Кбит/сек
Ширина : 1280 пикселей
Высота : 544 пикселя
Соотношение сторон : 2,35:1
Режим частоты кадров : Постоянный
Частота кадров : 23,976 (24000/1001) кадра/сек
Стандарт вещания : Component
Цветовое пространство : YUV
Субдискретизация насыщенности : 4:2:0
Битовая глубина : 8 бит
Тип развёртки : Прогрессивная
Бит/(Пиксели*Кадры) : 0.393
Размер потока : 4,43 Гбайт (92%)
Default : Да
Forced : Нет
Цветовой диапазон : Limited
Основные цвета : BT.709
Характеристики трансфера : BT.709
Коэффициенты матрицы : BT.709

Аудио
Идентификатор : 2
Формат : AC-3
Формат/Информация : Audio Coding 3
Расширение режима : CM (complete main)
Параметр Endianness формата : Big
Идентификатор кодека : A_AC3
Продолжительность : 1 ч. 36 м.
Вид битрейта : Постоянный
Битрейт : 448 Кбит/сек
Каналы : 2 канала
Расположение каналов : Front: L R
Частота : 48,0 КГц
Частота кадров : 31,250 кадров/сек (1536 spf)
Метод сжатия : С потерями
Размер потока : 310 Мбайт (6%)
Default : Да
Forced : Нет

pb.wtf



Скачать Когда солнце встречает луну через торрент https://d.radikal.ru/d33/1904/94/d4af15ed912a.jpg Скачать фильм Когда солнце встречает луну через торрент бесплантно в хорошем качестве Описание: Судьба сводит Сон Чоу и Мун Вон во время того, как на всех улицах пропадает свет и остается только покидать свои дома и лицезреть ... 10 10 2
Торрент: Зарегистрирован [2019-04-06 17:57] · скачан: 5 раз
Статус: √ проверено
Размер: 4.83 GB
Как cкачать? Как скачать Когда солнце встречает луну через торрент | qTorrent

% Раздел Тема Автор DL S | L
Фильмы (мультфильмы) cо спонсором показа (Новинки AVI/MKV) [ 1.37 GB ] Когда солнце встречает луну / Mou ri mou yue / When Sun Meets Moon [2018 Мело HDRip] MVO ["Синема УС"] bober100 Скачать
1 | 0

28-11-2019 20:33  

Отключить всю рекламу на сайте

    Дорогой пользователь! Огромная просьба, поблагодарите релизера, оцените раздачу и оставьте свои комментарий, если Вы скачали Когда солнце встречает луну через торрент бесплатно! Внесите свою лепту в развитие PiratBit!
    Комментировать посты могут только пользователи прошедшие не сложную регистрацию
    Показать сообщения:    

    Когда солнце встречает луну через торрент
    Скачать бесплатно Когда солнце встречает луну
    Когда солнце встречает луну скачать торрент
    Когда солнце встречает луну смотреть онлайн
    Cкачать фильм Когда солнце встречает луну бесплатно
    Когда солнце встречает луну скачать торрент в хорошем качестве
    Когда солнце встречает луну смотреть онлайн бесплатно в хорошем качестве


    Вы не можете начинать темы
    Вы не можете отвечать на сообщения
    Вы не можете редактировать свои сообщения
    Вы не можете удалять свои сообщения
    Вы не можете голосовать в опросах
    Вы не можете прикреплять файлы к сообщениям
    Вы можете скачивать файлы