Ссылка на приватное зеркало всего за 1$. Внимание количество ограничено!!!

OK

1+1

iTunes

мы

OK

1

WEB-DLRip

Джокер

Пифагор

Ведьмак / The Witcher сериал

iTunes

ПШазам

ОК

Оно 2

iTunes

30
pack

Вам бонус

ВАЖНО

!!Акция!!

Alien_RageХит недели

RePack

Resident Evil 21

ИГРА 18+

pack

RePack

jed

RePack

fifa19

RePack

Assassins Creed: Odyssey

RePack

NEED FOR SPEED™ PAYBACK

4 сезон

9 сезон

Бесстыжие 9 сезон

Все сериалы

все сериалы на PB.wtf

RePack

FAR CRY 5
  

Скованный / Tucked (Джэми Паттерсон) [2018, драма, WEB-DL 720p] MVO ["Синема УС"] pb.wtf

Скованный через торрент pb.wtf

Размер: 3.17 GB | Добавлен: 9 мес. назад | Торрент скачан:4 раза
Скачать  

06-04-2019 18:15 Скованный Скачать торрент  

Скованный / TuckedГод выпуска: 2018
Страна: Великобритания
Жанр: драма
Продолжительность: 01:21:51
Перевод: Любительский (многоголосый) | "Синема УС"
Субтитры: отсутствуют

Режиссер: Джэми Паттерсон

rating

В ролях:

Деррен Несбитт, Джордан Стефенс, Эйприл Пирсон, Стив Орам, Люси-Джейн Куинлэн, Рубен Кроу, Джосс Портер, Брендон Барнс, Адрианна Эдвардс, Ричард Хиллс мл.

Описание:

Фильм "Скованный" - это нежная драма о стареющем трансвестите, который на закате своей жизни заводит дружбу с молодым и полным жизни парнем. Благодаря этой дружбе и взаимовыручке они поймут, как важно быть собой, и попытаются исправить ошибки прошлого.

Качество: WEB-DL 720p
Формат: MKV

Видео: h.264,5 155 Кбит/с, 1280x536
Аудио#1: Русский, (AC3, 2 ch, 384 Кбит/с)
скриншот  скриншот  скриншот  

Общее
Уникальный идентификатор : 223592417097790386773270244980533538608 (0xA8365548D64A4F7E96066837DF3CAF30)
Полное имя : D:\Tucked.2018.P.WEB-DL.72Op.mkv
Формат : Matroska
Версия формата : Version 2
Размер файла : 3,17 Гбайт
Продолжительность : 1 ч. 21 м.
Режим общего битрейта : Переменный
Общий поток : 5541 Кбит/сек
Дата кодирования : UTC 2019-04-01 14:07:11
Программа кодирования : mkvmerge v8.3.0 ('Over the Horizon') 64bit
Библиотека кодирования : libebml v1.3.1 + libmatroska v1.4.2

Видео
Идентификатор : 1
Формат : AVC
Формат/Информация : Advanced Video Codec
Профиль формата : High@L4.1
Параметр CABAC формата : Да
Параметр RefFrames формата : 4 кадра
Идентификатор кодека : V_MPEG4/ISO/AVC
Продолжительность : 1 ч. 21 м.
Вид битрейта : Переменный
Битрейт : 5155 Кбит/сек
Максимальный битрейт : 6000 Кбит/сек
Ширина : 1280 пикселей
Высота : 536 пикселей
Соотношение сторон : 2,40:1
Режим частоты кадров : Постоянный
Частота кадров : 23,976 (24000/1001) кадра/сек
Стандарт вещания : Component
Цветовое пространство : YUV
Субдискретизация насыщенности : 4:2:0
Битовая глубина : 8 бит
Тип развёртки : Прогрессивная
Бит/(Пиксели*Кадры) : 0.307
Размер потока : 2,89 Гбайт (91%)
Default : Да
Forced : Нет
Цветовой диапазон : Limited
Основные цвета : BT.709
Характеристики трансфера : BT.709
Коэффициенты матрицы : BT.709

Аудио
Идентификатор : 2
Формат : AC-3
Формат/Информация : Audio Coding 3
Расширение режима : CM (complete main)
Параметр Endianness формата : Big
Идентификатор кодека : A_AC3
Продолжительность : 1 ч. 21 м.
Вид битрейта : Постоянный
Битрейт : 384 Кбит/сек
Каналы : 2 канала
Расположение каналов : Front: L R
Частота : 48,0 КГц
Частота кадров : 31,250 кадров/сек (1536 spf)
Метод сжатия : С потерями
Размер потока : 225 Мбайт (7%)
Default : Да
Forced : Нет

pb.wtf



Скачать Скованный через торрент https://c.radikal.ru/c27/1904/d8/172806d19b8d.jpg Скачать фильм Скованный через торрент бесплантно в хорошем качестве Описание: Фильм "Скованный" - это нежная драма о стареющем трансвестите, который на закате своей жизни заводит дружбу с молодым и полным ... 5.5 10 4
Торрент: Зарегистрирован [2019-04-06 18:15] · скачан: 4 раз
Статус: √ проверено
Размер: 3.17 GB
Как cкачать? Как скачать Скованный через торрент | qTorrent

% Раздел Тема Автор DL S | L
Фильмы (мультфильмы) cо спонсором показа (Новинки AVI/MKV) [ 1.36 GB ] Скованный / Tucked [2018 WEB-DLRip] MVO ["Синема УС"] bober100 Скачать
1 | 0

28-11-2019 20:33  

Отключить всю рекламу на сайте

06-04-2019 19:40 Скованный Скачать торрент  

нахрен такое заливатьpb.wtf



06-04-2019 21:16 Скованный Скачать торрент  

Нежная драма о стареющем трансвестите... Сук, до слез pb.wtf



07-04-2019 03:36 Скованный Скачать торрент  

Фильм "Скованный" - это нежная драма о стареющем трансвестите.......... ,чуть не блеванул от описания...В топку такое унылое ....pb.wtf



07-04-2019 14:44 Скованный Скачать торрент  

Unstopable1212 писал(а):

Нежная драма о стареющем трансвестите... Сук, до слез

стареющая драма о нежном трансвестите...
нежный трансвестит о стареющей драме...
бл… загнался...)))pb.wtf



    Дорогой пользователь! Огромная просьба, поблагодарите релизера, оцените раздачу и оставьте свои комментарий, если Вы скачали Скованный через торрент бесплатно! Внесите свою лепту в развитие PiratBit!
    Комментировать посты могут только пользователи прошедшие не сложную регистрацию
    Показать сообщения:    

    Скованный через торрент
    Скачать бесплатно Скованный
    Скованный скачать торрент
    Скованный смотреть онлайн
    Cкачать фильм Скованный бесплатно
    Скованный скачать торрент в хорошем качестве
    Скованный смотреть онлайн бесплатно в хорошем качестве


    Вы не можете начинать темы
    Вы не можете отвечать на сообщения
    Вы не можете редактировать свои сообщения
    Вы не можете удалять свои сообщения
    Вы не можете голосовать в опросах
    Вы не можете прикреплять файлы к сообщениям
    Вы можете скачивать файлы