новый адрес
Ссылка на приватное зеркало всего за 1$. Внимание количество ограничено!!!

iTunes

1+1

iTunes

мы

WEB-DL

1

iTunes

Чернобыль

iTunes

Ральф против интернета

Лицензия

ПШазам

Лицензия

Оно 2

Лицензия

30
pack

Вам бонус

ВАЖНО

!!Акция!!

Alien_RageХит недели

RePack

Resident Evil 21

ИГРА 18+

pack

RePack

jed

!!Акция!!

Alien_Rage

RePack

fifa19

RePack

Assassins Creed: Odyssey

RePack

NEED FOR SPEED™ PAYBACK

3 сезон

9 сезон

Бесстыжие 9 сезон

Все сериалы

все сериалы на PB.wtf

RePack

FAR CRY 5
Ребята, катастрофически не хватает 1900р. для оплаты серверов за Октябрь (всвязи с блокировками трафик упал в 3 раза), 1-2р., выручайте.
  

Мэри Поппинс возвращается / Mary Poppins Returns (Роб Маршалл) [2018 г., мюзикл, фэнтези, комедия, семейный, HDRip, Дубляж "iTunes"] pb.wtf

Мэри Поппинс возвращается через торрент pb.wtf

Размер: 816 MB | Добавлен: 8 мес. назад | Торрент скачан:40 раз
Скачать  

06-04-2019 18:43 Мэри Поппинс возвращается Скачать торрент  

Мэри Поппинс возвращается / Mary Poppins Returns
Год выпуска: 2018
Страна: США / Lucamar Productions, Marc Platt Productions, Walt Disney Pictures
Жанр: мюзикл, фэнтези, комедия, семейный
Продолжительность: 02:10:29
Перевод: Дубляж (iTunes)
Субтитры: Русские форсированные-вшитые

Режиссер: Роб Маршалл

rating

В ролях: Эмили Блант, Лин-Мануэль Миранда, Бен Уишоу, Эмили Мортимер, Пикси Дейвис, Натаниэль Сале, Джоэль Доусон, Джули Уолтерс, Мэрил Стрип, Колин Фёрт

Описание: Фильм рассказывает о новых приключениях Мэри и ее друга Джека, которым предстоит встретиться с представителями следующего поколения семейства Бэнкс.

Качество: HDRip
Формат: AVI
Видео кодек: XviD
Аудио кодек: MP3
Видео: 640x272 (2.35:1), 23.976 fps, XviD build 50 ~736 kbps avg, 0.18 bit/pixe
Аудио: 48 kHz, MPEG Layer 3, 2 ch, ~128.00 kbps avg
скриншот   скриншот   скриншот   скриншот  

Общее
Полное имя : F:\ФИЛЬМЫ\Мэри Поппинс возвращается.2018.D.HDRip.avi
Формат : AVI
Формат/Информация : Audio Video Interleave
Размер файла : 816 Мбайт
Продолжительность : 2 ч. 10 м.
Общий поток : 874 Кбит/сек
Программа кодирования : VirtualDubMod 1.5.10.3 | www.virtualdub-fr.org || (build 2550/release)
Библиотека кодирования : VirtualDubMod build 2550/release

Видео
Идентификатор : 0
Формат : MPEG-4 Visual
Профиль формата : Advanced Simple@L5
Настройки формата : BVOP1
Параметр BVOP формата : 1
Параметр QPel формата : Нет
Параметр GMC формата : Без точки перехода
Параметр матрицы формата : Default (MPEG)
Идентификатор кодека : XVID
Идентификатор кодека/Подсказка : XviD
Продолжительность : 2 ч. 10 м.
Битрейт : 737 Кбит/сек
Ширина : 640 пикселей
Высота : 272 пикселя
Соотношение сторон : 2,35:1
Частота кадров : 23,976 (24000/1001) кадра/сек
Цветовое пространство : YUV
Субдискретизация насыщенности : 4:2:0
Битовая глубина : 8 бит
Тип развёртки : Прогрессивная
Метод сжатия : С потерями
Бит/(Пиксели*Кадры) : 0.177
Размер потока : 688 Мбайт (84%)
Библиотека кодирования : XviD 1.2.1 (UTC 2008-12-04)

Аудио
Идентификатор : 1
Формат : MPEG Audio
Версия формата : Version 1
Профиль формата : Layer 3
Настройки формата : Joint stereo
Идентификатор кодека : 55
Идентификатор кодека/Подсказка : MP3
Продолжительность : 2 ч. 10 м.
Вид битрейта : Постоянный
Битрейт : 128 Кбит/сек
Каналы : 2 канала
Частота : 48,0 КГц
Частота кадров : 41,667 кадра/сек (1152 SPF)
Метод сжатия : С потерями
Размер потока : 119 Мбайт (15%)
Выравнивание : Соединение по промежуткам
Продолжительность промежутка : 42 мс. (1,00 видеокадр)
Время предзагрузки промежутка : 504 мс.
Библиотека кодирования : LAME3.99r
Настройки программы : -m j -V 4 -q 2 -lowpass 17 -b 128

pb.wtf



Скачать Мэри Поппинс возвращается через торрент http://pic1.kartinco.top/images/12/cgyyd.jpg Скачать фильм Мэри Поппинс возвращается через торрент бесплантно в хорошем качестве Описание: Фильм рассказывает о новых приключениях Мэри и ее друга Джека, которым предстоит встретиться с представителями следующего ... 10 10 1
Торрент: Зарегистрирован [2019-04-06 18:43] · скачан: 40 раз
Статус: √ проверено
Размер: 816 MB
Как cкачать? Как скачать Мэри Поппинс возвращается через торрент | qTorrent

% Раздел Тема Автор DL S | L
Ultra HD (UHD: 2K, 4K, 8K) — видео сверхвысокой чёткости [ 62.1 GB ] Мэри Поппинс возвращается / Mary Poppins Returns [2018 мюзикл UHD Blu-ray 2160p] [Custom] DUB sheker187 Скачать
1 | 0
Ultra HD (UHD: 2K, 4K, 8K) — видео сверхвысокой чёткости [ 17.75 GB ] Мэри Поппинс возвращается / Mary Poppins Returns [2018 мюзикл UHD BDRip 2160p] DUB + MVO [HDRezka studio] sheker187 Скачать
1 | 0
Фильмы 2018 [DVDrip, WEB-DLRip, HDrip] (DUB, MVO) [ 1.45 GB ] Мэри Поппинс возвращается / Mary Poppins Returns [2018 мюзикл BDRip-AVC] DUB [] - ExKinoRay Enigma2010 Скачать
15 | 0
Ultra HD (UHD: 2K, 4K, 8K) — видео сверхвысокой чёткости [ 39.9 GB ] Мэри Поппинс возвращается / Mary Poppins Returns [2018 мюзикл UHD BDRip 2160p] [SDR] DUB + MVO [HDRezka studio] sheker187 Скачать
1 | 0
Фильмы [HD 720p, 1080p] (Хороший звук DUB, MVO) [ 13.58 GB ] Мэри Поппинс возвращается / Mary Poppins Returns [2018 мюзикл BDRip 1080p] DUB [] + MVO [HDRezka studio] sheker187 Скачать
2 | 0
Фильмы (Blu-ray, BD-Remux, HDDVD) [ 29.43 GB ] Мэри Поппинс возвращается / Mary Poppins Returns [2018 мюзикл BDRemux 1080p] DUB [] + MVO [HDRezka studio] sheker187 Скачать
1 | 0
Ultra HD (UHD: 2K, 4K, 8K) — видео сверхвысокой чёткости [ 53.8 GB ] Мэри Поппинс возвращается / Mary Poppins Returns [2018 мюзикл UHD BDRemux 2160p] DUB [] + MVO [HDRezka studio] sheker187 Скачать
1 | 0

28-11-2019 20:33  

Отключить всю рекламу на сайте

    Дорогой пользователь! Огромная просьба, поблагодарите релизера, оцените раздачу и оставьте свои комментарий, если Вы скачали Мэри Поппинс возвращается через торрент бесплатно! Внесите свою лепту в развитие PiratBit!
    Комментировать посты могут только пользователи прошедшие не сложную регистрацию
    Показать сообщения:    

    Мэри Поппинс возвращается через торрент
    Скачать бесплатно Мэри Поппинс возвращается
    Мэри Поппинс возвращается скачать торрент
    Мэри Поппинс возвращается смотреть онлайн
    Cкачать фильм Мэри Поппинс возвращается бесплатно
    Мэри Поппинс возвращается скачать торрент в хорошем качестве
    Мэри Поппинс возвращается смотреть онлайн бесплатно в хорошем качестве


    Вы не можете начинать темы
    Вы не можете отвечать на сообщения
    Вы не можете редактировать свои сообщения
    Вы не можете удалять свои сообщения
    Вы не можете голосовать в опросах
    Вы не можете прикреплять файлы к сообщениям
    Вы можете скачивать файлы