Доктор Стрэндж

Лицензия

Добыча

MVO

Дом дракона

1 сезон

Тор

Лицензия

Мэверик

Лицензия

Там, где раки поют

MVO

Властелин колец

1 сезон

Ultimate

pack

Рекомендуем

30

Repack

ВАЖНО

ВАЖНО

Ghostwire

RePack

jed

RePack

nioh2

RePack

RDR2

RePack

NEED FOR SPEED™ PAYBACK

RePack

скачать торрент

Кинопоиск HD

Острые козырьки 6 сезон

6 сезон

FAR CRY 6

RePack

скачать торрент

Лицензия

скачать торрент

MVO

1

1 сезон

скачать торрент

1 сезон

скачать торрент

Лицензия

  

Конан-варвар / Conan the Barbarian (Джон Милиус) [1982, Фэнтези, боевик, приключения, BDRip-HEVC 1080p] AVO+2MVO

Конан-варвар через торрент pb.wtf

Размер: 7.94 GB | Добавлен: 3 года 5 мес. назад | Торрент скачан:55 раз
Смотреть онлайн Конан-варвар | Скачать   

07-04-2019 06:14 Конан-варвар Скачать торрент  

Конан-варвар / Conan the Barbarian Год выпуска: 1982
Страна: США
Жанр: Фэнтези, боевик, приключения
Продолжительность: 02:10:31
Перевод: Профессиональный (многоголосый), авторский
Субтитры: Русские, английские

Режиссер: Джон Милиус

rating

В ролях:

Арнольд Шварценеггер (Conan), Джеймс Эрл Джонс (Thulsa Doom), Макс фон Сюдов (King Osric), Сэндал Бергман (Valeria), Бен Дэвидсон (Rexor), Кассандра Гава (The Witch), Джерри Лопес (Subotai), Мако (The Wizard / рассказчик), Валери Кеннессен (The Princess), Уильям Смит (Conan's Father), Луис Барбо (Red Hair), Франко Колумбу (Pictish Scout)

Описание:

В детстве Конан стал свидетелем жестокого убийства своих родителей беспощадным Тулса Думом. Его обезумевшие от запаха крови солдаты разорили и сожгли до тла родную деревню Конана. Мальчик вырастает в рабстве и превращается в обладающего неимоверной силой и мышечной массой непобедимого воина.
Поклявшись отомстить за родителей, он отправляется на поиски своего врага. Его путь полон невероятных приключений, отчаянных поединков, неожиданных встреч и опасностей.
Конан с достоинством проходит все испытания, но сможет ли он победить в последней и самой опасной битве в его жизни, битве с непобедимым Тулса Думом?

Качество: BDRip-HEVC 1080p
Формат: MKV

Видео: 1920x816, 23.976 кадр/сек, 6975 Кбит/сек, 8bit
Аудио#1: Русская, AC3 448 Кбит/сек, 6 канала(ов),16bit 48,0 КГц (MVO Киномания)
Аудио#2: Русская, AC3 448 Кбит/сек, 6 канала(ов),16bit 48,0 КГц (MVO Карусель)
Аудио#3: Русская, AC3 448 Кбит/сек, 6 канала(ов),16bit 48,0 КГц (AVO Гаврилов)
Аудио#4: English, AC3 384 Кбит/сек, 6 канала(ов),16bit 48,0 КГц
скриншот  скриншот  скриншот  скриншот  

скриншот  скриншот  скриншот  скриншот  

General
Unique ID : 233610494961238938207885441309803493499 (0xAFBFBEA863559C2B8419E16E3A67387B)
Complete name : T:HDFILMSConanConan the Barbarian (1982) BDRip 1080p [HEVC].mkv
Format : Matroska
Format version : Version 4 / Version 2
File size : 7.94 GiB
Duration : 2 h 10 min
Overall bit rate : 8 705 kb/s
Encoded date : UTC 2017-09-05 19:13:09
Writing application : mkvmerge v13.0.0 ('The Juggler') 64bit
Writing library : libebml v1.3.4 + libmatroska v1.4.5
Cover : Yes
Attachments : cover1.jpg

Video
ID : 1
Format : HEVC
Format/Info : High Efficiency Video Coding
Format profile : [email protected]@High
Codec ID : V_MPEGH/ISO/HEVC
Duration : 2 h 10 min
Bit rate : 6 975 kb/s
Width : 1 920 pixels
Height : 816 pixels
Display aspect ratio : 2.35:1
Frame rate mode : Constant
Frame rate : 23.976 (24000/1001) FPS
Color space : YUV
Chroma subsampling : 4:2:0
Bit depth : 8 bits
Bits/(Pixel*Frame) : 0.186
Stream size : 6.36 GiB (80%)
Writing library : x265 2.5+12-fcd9154fa4e2:[Windows][GCC 7.1.0][64 bit] 8bit
Encoding settings : cpuid=1050111 / frame-threads=5 / numa-pools=4 / wpp / no-pmode / no-pme / no-psnr / no-ssim / log-level=3 / input-csp=1 / input-res=1920x816 / interlace=0 / total-frames=0 / level-idc=41 / high-tier=1 / uhd-bd=0 / ref=4 / no-allow-non-conformance / no-repeat-headers / annexb / no-aud / no-hrd / info / hash=0 / no-temporal-layers / open-gop / min-keyint=23 / keyint=240 / bframes=14 / b-adapt=2 / b-pyramid / bframe-bias=0 / rc-lookahead=40 / lookahead-slices=5 / scenecut=40 / no-intra-refresh / ctu=64 / min-cu-size=8 / no-rect / no-amp / max-tu-size=32 / tu-inter-depth=2 / tu-intra-depth=2 / limit-tu=0 / rdoq-level=0 / dynamic-rd=0.00 / no-ssim-rd / signhide / no-tskip / nr-intra=0 / nr-inter=0 / no-constrained-intra / strong-intra-smoothing / max-merge=3 / limit-refs=3 / no-limit-modes / me=2 / subme=3 / merange=32 / temporal-mvp / weightp / weightb / no-analyze-src-pics / deblock=-3:-3 / no-sao / no-sao-non-deblock / rd=3 / no-early-skip / rskip / no-fast-intra / no-tskip-fast / no-cu-lossless / no-b-intra / no-splitrd-skip / rdpenalty=0 / psy-rd=2.00 / psy-rdoq=0.00 / no-rd-refine / analysis-reuse-mode=0 / no-lossless / cbqpoffs=0 / crqpoffs=0 / rc=crf / crf=19.0 / qcomp=0.60 / qpstep=4 / stats-write=0 / stats-read=0 / vbv-maxrate=50000 / vbv-bufsize=35714 / vbv-init=0.9 / crf-max=30.0 / crf-min=0.0 / ipratio=1.40 / pbratio=1.30 / aq-mode=2 / aq-strength=1.00 / cutree / zone-count=0 / no-strict-cbr / qg-size=32 / no-rc-grain / qpmax=69 / qpmin=0 / no-const-vbv / sar=1 / overscan=0 / videoformat=5 / range=0 / colorprim=2 / transfer=2 / colormatrix=2 / chromaloc=0 / display-window=0 / max-cll=0,0 / min-luma=0 / max-luma=255 / log2-max-poc-lsb=8 / vui-timing-info / vui-hrd-info / slices=1 / opt-qp-pps / opt-ref-list-length-pps / no-multi-pass-opt-rps / scenecut-bias=0.05 / no-opt-cu-delta-qp / no-aq-motion / no-hdr / no-hdr-opt / no-dhdr10-opt / analysis-reuse-level=5 / scale-factor=0 / refine-intra=0 / refine-inter=0 / refine-mv=0 / no-limit-sao / ctu-info=0
Language : English
Default : Yes
Forced : No

Audio #1
ID : 2
Format : AC-3
Format/Info : Audio Coding 3
Format settings, Endianness : Big
Codec ID : A_AC3
Duration : 2 h 10 min
Bit rate mode : Constant
Bit rate : 448 kb/s
Channel(s) : 6 channels
Channel positions : Front: L C R, Side: L R, LFE
Sampling rate : 48.0 kHz
Frame rate : 31.250 FPS (1536 SPF)
Bit depth : 16 bits
Compression mode : Lossy
Stream size : 418 MiB (5%)
Title : MVO Киномания
Language : Russian
Service kind : Complete Main
Default : Yes
Forced : No

Audio #2
ID : 3
Format : AC-3
Format/Info : Audio Coding 3
Format settings, Endianness : Big
Codec ID : A_AC3
Duration : 2 h 10 min
Bit rate mode : Constant
Bit rate : 448 kb/s
Channel(s) : 6 channels
Channel positions : Front: L C R, Side: L R, LFE
Sampling rate : 48.0 kHz
Frame rate : 31.250 FPS (1536 SPF)
Bit depth : 16 bits
Compression mode : Lossy
Stream size : 418 MiB (5%)
Title : MVO Карусель
Language : Russian
Service kind : Complete Main
Default : No
Forced : No

Audio #3
ID : 4
Format : AC-3
Format/Info : Audio Coding 3
Format settings, Endianness : Big
Codec ID : A_AC3
Duration : 2 h 10 min
Bit rate mode : Constant
Bit rate : 448 kb/s
Channel(s) : 6 channels
Channel positions : Front: L C R, Side: L R, LFE
Sampling rate : 48.0 kHz
Frame rate : 31.250 FPS (1536 SPF)
Bit depth : 16 bits
Compression mode : Lossy
Stream size : 418 MiB (5%)
Title : AVO Гаврилов
Language : Russian
Service kind : Complete Main
Default : No
Forced : No

Audio #4
ID : 5
Format : AC-3
Format/Info : Audio Coding 3
Format settings, Endianness : Big
Codec ID : A_AC3
Duration : 2 h 10 min
Bit rate mode : Constant
Bit rate : 384 kb/s
Channel(s) : 6 channels
Channel positions : Front: L C R, Side: L R, LFE
Sampling rate : 48.0 kHz
Frame rate : 31.250 FPS (1536 SPF)
Bit depth : 16 bits
Compression mode : Lossy
Stream size : 359 MiB (4%)
Language : English
Service kind : Complete Main
Default : No
Forced : No

Text #1
ID : 6
Format : UTF-8
Codec ID : S_TEXT/UTF8
Codec ID/Info : UTF-8 Plain Text
Duration : 2 h 10 min
Bit rate : 24 b/s
Count of elements : 462
Stream size : 23.1 KiB (0%)
Language : Russian
Default : Yes
Forced : No

Text #2
ID : 7
Format : UTF-8
Codec ID : S_TEXT/UTF8
Codec ID/Info : UTF-8 Plain Text
Duration : 2 h 9 min
Bit rate : 18 b/s
Count of elements : 636
Stream size : 17.3 KiB (0%)
Language : English
Default : No
Forced : No

Menu
00:00:00.000 : :Глава 1
00:13:35.147 : :Глава 2
00:17:38.682 : :Глава 3
00:24:09.322 : :Глава 4
00:29:45.200 : :Глава 5
00:36:55.588 : :Глава 6
00:48:39.291 : :Глава 7
00:59:52.547 : :Глава 8
01:05:16.162 : :Глава 9
01:16:01.431 : :Глава 10
01:23:44.436 : :Глава 11
01:38:02.334 : :Глава 12
01:44:03.570 : :Глава 13
01:56:24.977 : :Глава 14
02:06:02.346 : :Глава 15
02:10:31.615 : :Глава 16




Скачать Конан-варвар через торрент http://i65.fastpic.ru/big/2015/1223/a1/7de8c7633da9fc93d937bc191564d6a1.png Скачать, смотреть онлайн Конан-варвар бесплантно в хорошем качестве Описание: В детстве Конан стал свидетелем жестокого убийства своих родителей беспощадным Тулса Думом. Его обезумевшие от запаха крови ... 8.5 10 6
Торрент: Зарегистрирован [2019-04-07 06:14] · скачан: 55 раз
Статус: √ проверено
Размер: 7.94 GB
Как cкачать? Как скачать Конан-варвар через торрент | UTorrent

28-11-2019 20:33  

Отключить вcю реклaмy на сайте

    Дорогой пользователь! Огромная просьба, поблагодарите релизера, оцените раздачу и оставьте свои комментарий, если Вы скачали Конан-варвар через торрент бесплатно!!
    Комментировать посты могут только пользователи прошедшие не сложную регистрацию
    Показать сообщения:    


    Конан-варвар через торрент
    Скачать бесплатно Конан-варвар
    Конан-варвар скачать торрент
    Конан-варвар смотреть онлайн
    Cкачать фильм Конан-варвар бесплатно
    Конан-варвар скачать торрент в хорошем качестве
    Конан-варвар смотреть онлайн бесплатно в хорошем качестве
    Вы не можете начинать темы
    Вы не можете отвечать на сообщения
    Вы не можете редактировать свои сообщения
    Вы не можете удалять свои сообщения
    Вы не можете голосовать в опросах
    Вы не можете прикреплять файлы к сообщениям
    Вы можете скачивать файлы