Доктор Стрэндж

Лицензия

Добыча

MVO

Дом дракона

1 сезон

Тор

Лицензия

Мэверик

Лицензия

Там, где раки поют

MVO

Властелин колец

1 сезон

Ultimate

pack

Рекомендуем

30

Repack

ВАЖНО

ВАЖНО

Ghostwire

RePack

jed

RePack

nioh2

RePack

RDR2

RePack

NEED FOR SPEED™ PAYBACK

RePack

скачать торрент

Кинопоиск HD

Острые козырьки 6 сезон

6 сезон

FAR CRY 6

RePack

скачать торрент

Лицензия

скачать торрент

MVO

1

1 сезон

скачать торрент

1 сезон

скачать торрент

Лицензия

  

Конан-варвар / Conan the Barbarian (Маркус Ниспел) [2011, Фэнтези, боевик, приключения, BDRip-HEVC 1080p, (10 bit)] DUB [Лицензия]

Конан-варвар через торрент pb.wtf

Раздают: 1 [ 0 KB/s ]
Размер: 4.6 GB | Добавлен: 3 года 5 мес. назад | Торрент скачан:223 раза
Смотреть онлайн Конан-варвар | Скачать   

07-04-2019 06:14 Конан-варвар Скачать торрент  

Конан-варвар / Conan the Barbarian
Год выпуска: 2011
Страна: США
Жанр: Фэнтези, боевик, приключения
Продолжительность: 01:52:48
Перевод: Дублированный | Лицензия
Субтитры: Русские, английские

Режиссер: Маркус Ниспел

rating

В ролях:

Джейсон Момоа, Стивен Лэнг, Рэйчел Николс, Роуз МакГоун, Рон Перлман, Нонсо Анози, Саид Тагмауи, Боб Сапп, Лео Ховард, Стив О’Доннелл, Раад Рави, Лайла Руасс, Милтон Уэлш, Борислав Илиев, Натан Джонс, Диана Любенова, Алина Пускау, Йоан Карамфилов, Райчо Василев, Станимир Стаматов, Николай Станоев, Ивана Станева, Антон Трендафилов, Джексон Спиделл, Радослав Парванов, Теодора Духовникова, Шелли Варод

Описание:

Природа наделила его силой. Гибель отца сделала его свирепым. Великий киммерийский воин Конан отправляется в дальнее странствие, чтобы совершить отмщение за кровь своего рода. Но поиски, которые начинаются как личная вендетта, вскоре оборачиваются эпической схваткой со сверхъестественными силами, поработившими народы великой Хайбории. Киммерийский воин — последняя надежда на спасение…

Качество: BDRip-HEVC 1080p
Формат: MKV

Видео: 1920x800, 23.976 кадр/сек, 5014 Кбит/сек, 10bit
Аудио#1: Русская, AC3 448 Кбит/сек, 6 канала(ов),16bit 48,0 КГц |
Аудио#2: English, AC3 384 Кбит/сек, 6 канала(ов),16bit 48,0 КГц |
скриншот  скриншот  скриншот  скриншот  

скриншот  скриншот  скриншот  скриншот  

General
Unique ID : 230147822772818941040238060113946556633 (0xAD24DBBCEA56061F98B7B30E9AB938D9)
Complete name : T:HDFILMSConanConan the Barbarian (2011) BDRip 1080p [HEVC] 10Bit.mkv
Format : Matroska
Format version : Version 4 / Version 2
File size : 4.60 GiB
Duration : 1 h 52 min
Overall bit rate : 5 843 kb/s
Encoded date : UTC 2017-09-07 16:19:04
Writing application : mkvmerge v13.0.0 ('The Juggler') 64bit
Writing library : libebml v1.3.4 + libmatroska v1.4.5
Cover : Yes
Attachments : cover.jpg

Video
ID : 1
Format : HEVC
Format/Info : High Efficiency Video Coding
Format profile : Main [email protected]@High
Codec ID : V_MPEGH/ISO/HEVC
Duration : 1 h 52 min
Bit rate : 5 014 kb/s
Width : 1 920 pixels
Height : 800 pixels
Display aspect ratio : 2.40:1
Frame rate mode : Constant
Frame rate : 23.976 (24000/1001) FPS
Color space : YUV
Chroma subsampling : 4:2:0
Bit depth : 10 bits
Bits/(Pixel*Frame) : 0.136
Stream size : 3.95 GiB (86%)
Writing library : x265 2.5+12-fcd9154fa4e2:[Windows][GCC 7.1.0][64 bit] 10bit
Encoding settings : cpuid=1050111 / frame-threads=5 / numa-pools=4 / wpp / no-pmode / no-pme / no-psnr / no-ssim / log-level=3 / input-csp=1 / input-res=1920x800 / interlace=0 / total-frames=0 / level-idc=51 / high-tier=1 / uhd-bd=0 / ref=4 / no-allow-non-conformance / no-repeat-headers / annexb / no-aud / no-hrd / info / hash=0 / no-temporal-layers / open-gop / min-keyint=23 / keyint=240 / bframes=10 / b-adapt=2 / b-pyramid / bframe-bias=0 / rc-lookahead=40 / lookahead-slices=5 / scenecut=40 / no-intra-refresh / ctu=64 / min-cu-size=8 / no-rect / no-amp / max-tu-size=32 / tu-inter-depth=2 / tu-intra-depth=2 / limit-tu=0 / rdoq-level=0 / dynamic-rd=0.00 / no-ssim-rd / signhide / no-tskip / nr-intra=0 / nr-inter=0 / no-constrained-intra / strong-intra-smoothing / max-merge=3 / limit-refs=3 / no-limit-modes / me=2 / subme=6 / merange=32 / temporal-mvp / weightp / weightb / no-analyze-src-pics / deblock=-3:-3 / no-sao / no-sao-non-deblock / rd=3 / no-early-skip / rskip / no-fast-intra / no-tskip-fast / no-cu-lossless / no-b-intra / no-splitrd-skip / rdpenalty=0 / psy-rd=2.00 / psy-rdoq=0.00 / no-rd-refine / analysis-reuse-mode=0 / no-lossless / cbqpoffs=0 / crqpoffs=0 / rc=crf / crf=19.0 / qcomp=0.60 / qpstep=4 / stats-write=0 / stats-read=0 / vbv-maxrate=50000 / vbv-bufsize=35714 / vbv-init=0.9 / crf-max=30.0 / crf-min=0.0 / ipratio=1.40 / pbratio=1.30 / aq-mode=2 / aq-strength=1.00 / cutree / zone-count=0 / no-strict-cbr / qg-size=32 / no-rc-grain / qpmax=69 / qpmin=0 / no-const-vbv / sar=1 / overscan=0 / videoformat=5 / range=0 / colorprim=2 / transfer=2 / colormatrix=2 / chromaloc=0 / display-window=0 / max-cll=0,0 / min-luma=0 / max-luma=1023 / log2-max-poc-lsb=8 / vui-timing-info / vui-hrd-info / slices=1 / opt-qp-pps / opt-ref-list-length-pps / no-multi-pass-opt-rps / scenecut-bias=0.05 / no-opt-cu-delta-qp / no-aq-motion / no-hdr / no-hdr-opt / no-dhdr10-opt / analysis-reuse-level=5 / scale-factor=0 / refine-intra=0 / refine-inter=0 / refine-mv=0 / no-limit-sao / ctu-info=0
Language : English
Default : Yes
Forced : No

Audio #1
ID : 2
Format : AC-3
Format/Info : Audio Coding 3
Format settings, Endianness : Big
Codec ID : A_AC3
Duration : 1 h 52 min
Bit rate mode : Constant
Bit rate : 448 kb/s
Channel(s) : 6 channels
Channel positions : Front: L C R, Side: L R, LFE
Sampling rate : 48.0 kHz
Frame rate : 31.250 FPS (1536 SPF)
Bit depth : 16 bits
Compression mode : Lossy
Stream size : 361 MiB (8%)
Language : Russian
Service kind : Complete Main
Default : Yes
Forced : No

Audio #2
ID : 3
Format : AC-3
Format/Info : Audio Coding 3
Format settings, Endianness : Big
Codec ID : A_AC3
Duration : 1 h 52 min
Bit rate mode : Constant
Bit rate : 384 kb/s
Channel(s) : 6 channels
Channel positions : Front: L C R, Side: L R, LFE
Sampling rate : 48.0 kHz
Frame rate : 31.250 FPS (1536 SPF)
Bit depth : 16 bits
Compression mode : Lossy
Stream size : 310 MiB (7%)
Language : English
Service kind : Complete Main
Default : No
Forced : No

Text #1
ID : 4
Format : UTF-8
Codec ID : S_TEXT/UTF8
Codec ID/Info : UTF-8 Plain Text
Duration : 1 h 43 min
Bit rate : 37 b/s
Count of elements : 704
Stream size : 28.3 KiB (0%)
Language : Russian
Default : Yes
Forced : No

Text #2
ID : 5
Format : UTF-8
Codec ID : S_TEXT/UTF8
Codec ID/Info : UTF-8 Plain Text
Duration : 1 h 43 min
Bit rate : 22 b/s
Count of elements : 604
Stream size : 16.9 KiB (0%)
Language : English
Default : No
Forced : No

Menu
00:00:00.000 : :Chapter 01
00:08:11.561 : :Chapter 02
00:15:34.461 : :Chapter 03
00:22:14.653 : :Chapter 04
00:29:43.184 : :Chapter 05
00:36:49.485 : :Chapter 06
00:43:15.204 : :Chapter 07
00:50:17.459 : :Chapter 08
00:57:29.891 : :Chapter 09
01:04:12.168 : :Chapter 10
01:10:35.466 : :Chapter 11
01:17:48.567 : :Chapter 12
01:24:50.697 : :Chapter 13
01:32:22.815 : :Chapter 14
01:40:48.529 : :Chapter 15
01:48:00.377 : :Chapter 16




Скачать Конан-варвар через торрент http://img.lostpic.net/orig_images/4/b/5/4b52d66ff7e18982535069cc612074dc.jpg Скачать, смотреть онлайн Конан-варвар бесплантно в хорошем качестве Описание: Природа наделила его силой. Гибель отца сделала его свирепым. Великий киммерийский воин Конан отправляется в дальнее странствие, ... 10 10 11
Info! Золотая раздача, скачанное не засчитывается.
Торрент: Зарегистрирован [2019-04-07 06:14] · скачан: 223 раз
Статус: √ проверено
Размер: 4.6 GB
Как cкачать? Как скачать Конан-варвар через торрент | UTorrent

% Раздел Тема Автор DL S | L
Ultra HD (UHD: 2K, 4K, 8K) [ 45.77 GB ] Конан-варвар / Conan the Barbarian | DUB+2xAVO | 2160p bober100 Скачать
1 | 0
Фильмы (Blu-ray, BD-Remux, HDDVD) [ 22.26 GB ] Конан-варвар / Conan the Barbarian | DUB + Original | Конан-варвар / Conan the Barbarian (Маркус Ниспел / Marcus Nispel Зайчина Скачать
1 | 0
3D Фильмы [ 7.36 GB ] Конан-Варвар 3Д / Conan the Barbarian 3D | DUBois | 1080p ACFIORENTINA Скачать
1 | 0

28-11-2019 20:33  

Отключить вcю реклaмy на сайте

07-04-2019 10:06 Конан-варвар Скачать торрент  

Как вижу этот фильм,сразу вздрагиваю,Момоа Конан северянин....



    Дорогой пользователь! Огромная просьба, поблагодарите релизера, оцените раздачу и оставьте свои комментарий, если Вы скачали Конан-варвар через торрент бесплатно!!
    Комментировать посты могут только пользователи прошедшие не сложную регистрацию
    Показать сообщения:    


    Конан-варвар через торрент
    Скачать бесплатно Конан-варвар
    Конан-варвар скачать торрент
    Конан-варвар смотреть онлайн
    Cкачать фильм Конан-варвар бесплатно
    Конан-варвар скачать торрент в хорошем качестве
    Конан-варвар смотреть онлайн бесплатно в хорошем качестве
    Вы не можете начинать темы
    Вы не можете отвечать на сообщения
    Вы не можете редактировать свои сообщения
    Вы не можете удалять свои сообщения
    Вы не можете голосовать в опросах
    Вы не можете прикреплять файлы к сообщениям
    Вы можете скачивать файлы