Marvel's Avengers Deluxe Edition (супер цена) 159р. Внимание количество ограничено!!!

2 сезон

iTunes

iTunes

1

iTunes

iTunes

iTunes

WEBRip

iTunes

30
pack

Новость дня

ВАЖНО

!!Акция!!

Alien_RageХит недели

RePack

Horizon Zero Dawn

ИГРА 18+

pack

RePack

jed

!!Акция!!

Alien_Rage

RePack

fifa19

RePack

Assassins Creed: Odyssey

RePack

NEED FOR SPEED™ PAYBACK

4 сезон

9 сезон

Бесстыжие 9 сезон

Все сериалы

все сериалы на PB.wtf

RePack

FAR CRY 5
  

Магазин единорогов / Unicorn Store (Бри Ларсон) [2017, комедия, WEB-DL 720p] MVO ["Синема УС"] pb.wtf

Магазин единорогов через торрент pb.wtf

Размер: 3.68 GB | Добавлен: 1 год 5 мес. назад | Торрент скачан:39 раз
Скачать  

07-04-2019 09:33 Магазин единорогов Скачать торрент  

Магазин единорогов / Unicorn StoreГод выпуска: 2017
Страна: США
Жанр: комедия
Продолжительность: 01:26:38
Перевод: Любительский (многоголосый) | "Синема УС"
Субтитры: отсутствуют

Режиссер: Бри Ларсон

rating

В ролях:

Бри Ларсон, Сэмюэл Л. Джексон, Джоан Кьюсак, Брэдли Уитфорд, Каран Сони, Марта МакАйзек, Райан Хансен, Хамиш Линклэйтер, Эмили Робинсон, Сьюзэн Парк

Описание:

Женщина по имени Кит получает таинственное приглашение, которое исполнит её детские мечты.

Качество: WEB-DL 720p
Формат: MKV

Видео: 5307 Кбит/с, 1280x532
Аудио#1: Русский, (AC3, 2 ch, 384 Кбит/с)
скриншот  скриншот  скриншот  

Общее
Уникальный идентификатор : 201016239063058153163122781859244087408 (0x973A51C4FB864B03B81B13CE45671870)
Полное имя : D:\Unicorn.Store.2017.P.WEB-DL.72Op.mkv
Формат : Matroska
Версия формата : Version 2
Размер файла : 3,68 Гбайт
Продолжительность : 1 ч. 32 м.
Режим общего битрейта : Переменный
Общий поток : 5693 Кбит/сек
Дата кодирования : UTC 2019-04-06 13:12:58
Программа кодирования : mkvmerge v8.3.0 ('Over the Horizon') 64bit
Библиотека кодирования : libebml v1.3.1 + libmatroska v1.4.2

Видео
Идентификатор : 1
Формат : AVC
Формат/Информация : Advanced Video Codec
Профиль формата : High@L4.1
Параметр CABAC формата : Да
Параметр RefFrames формата : 4 кадра
Идентификатор кодека : V_MPEG4/ISO/AVC
Продолжительность : 1 ч. 32 м.
Вид битрейта : Переменный
Битрейт : 5307 Кбит/сек
Максимальный битрейт : 6000 Кбит/сек
Ширина : 1280 пикселей
Высота : 532 пикселя
Соотношение сторон : 2,40:1
Режим частоты кадров : Постоянный
Частота кадров : 23,976 (24000/1001) кадра/сек
Стандарт вещания : Component
Цветовое пространство : YUV
Субдискретизация насыщенности : 4:2:0
Битовая глубина : 8 бит
Тип развёртки : Прогрессивная
Бит/(Пиксели*Кадры) : 0.318
Размер потока : 3,36 Гбайт (91%)
Default : Да
Forced : Нет
Цветовой диапазон : Limited
Основные цвета : BT.709
Характеристики трансфера : BT.709
Коэффициенты матрицы : BT.709

Аудио
Идентификатор : 2
Формат : AC-3
Формат/Информация : Audio Coding 3
Расширение режима : CM (complete main)
Параметр Endianness формата : Big
Идентификатор кодека : A_AC3
Продолжительность : 1 ч. 32 м.
Вид битрейта : Постоянный
Битрейт : 384 Кбит/сек
Каналы : 2 канала
Расположение каналов : Front: L R
Частота : 48,0 КГц
Частота кадров : 31,250 кадров/сек (1536 spf)
Метод сжатия : С потерями
Размер потока : 254 Мбайт (7%)
Default : Да
Forced : Нет

pb.wtf



Скачать Магазин единорогов через торрент https://d.radikal.ru/d38/1904/54/8d49a5f1af2b.jpg Скачать фильм Магазин единорогов через торрент бесплантно в хорошем качестве Описание: Женщина по имени Кит получает таинственное приглашение, которое исполнит её детские ... 10 10 2
Торрент: Зарегистрирован [2019-04-07 09:33] · скачан: 39 раз
Статус: T временная
Размер: 3.68 GB
Как cкачать? Как скачать Магазин единорогов через торрент | qTorrent

% Раздел Тема Автор DL S | L
T Фильмы (мультфильмы) cо спонсором показа (Новинки AVI/MKV) [ 1.37 GB ] Магазин единорогов / Unicorn Store [2017 WEB-DLRip] MVO ["Синема УС"] bober100 Скачать
1 | 0

28-11-2019 20:33  

Отключить всю рекламу на сайте

    Дорогой пользователь! Огромная просьба, поблагодарите релизера, оцените раздачу и оставьте свои комментарий, если Вы скачали Магазин единорогов через торрент бесплатно! Внесите свою лепту в развитие PiratBit!
    Комментировать посты могут только пользователи прошедшие не сложную регистрацию
    Показать сообщения:    

    Магазин единорогов через торрент
    Скачать бесплатно Магазин единорогов
    Магазин единорогов скачать торрент
    Магазин единорогов смотреть онлайн
    Cкачать фильм Магазин единорогов бесплатно
    Магазин единорогов скачать торрент в хорошем качестве
    Магазин единорогов смотреть онлайн бесплатно в хорошем качестве


    Вы не можете начинать темы
    Вы не можете отвечать на сообщения
    Вы не можете редактировать свои сообщения
    Вы не можете удалять свои сообщения
    Вы не можете голосовать в опросах
    Вы не можете прикреплять файлы к сообщениям
    Вы можете скачивать файлы