Ссылка на приватное зеркало всего за 1$. Внимание количество ограничено!!!

OK

1+1

iTunes

мы

OK

1

WEB-DLRip

Джокер

Пифагор

Ведьмак / The Witcher сериал

iTunes

ПШазам

ОК

Оно 2

iTunes

30
pack

Вам бонус

ВАЖНО

!!Акция!!

Alien_RageХит недели

RePack

Resident Evil 21

ИГРА 18+

pack

RePack

jed

RePack

fifa19

RePack

Assassins Creed: Odyssey

RePack

NEED FOR SPEED™ PAYBACK

4 сезон

9 сезон

Бесстыжие 9 сезон

Все сериалы

все сериалы на PB.wtf

RePack

FAR CRY 5
  

Демон / The Demon (О. Мунгунтулга, Б. Цогт-Эрдене) [2016, ужасы, WEB-DL 720p] MVO [КОЛОБОК] pb.wtf

Демон через торрент pb.wtf

Размер: 2.91 GB | Добавлен: 9 мес. назад | Торрент скачан:11 раз
Скачать  

07-04-2019 10:04 Демон Скачать торрент  

Демон / The DemonГод выпуска: 2016
Страна: Монголия
Жанр: ужасы
Продолжительность: 01:13:32
Перевод: Любительский (многоголосый) | КОЛОБОК
Субтитры: отсутствуют

Режиссер: О. Мунгунтулга, Б. Цогт-Эрдене



В ролях: Энхтувшин Балхаа, М. Батзориг, Е. Пуре Жаргал

Описание: Одна вечеринка в канун Нового Года принимает тревожный оборот в этой сверхъестественной истории ужасов. Группа друзей собирается и празднует в заброшенном здании, чтобы оживить его в конце года. Однако, как оказалось, здание имеет демоническую историю

Качество: WEB-DL 720p
Формат: MKV

Видео: 5280 Кбит/с, 1280x530
Аудио#1: Русский, (AC3, 2 ch, 384 Кбит/с)
скриншот  скриншот  скриншот  

Общее
Уникальный идентификатор : 196143429497621901507269953370817391323 (0x938FD9B58BDE7B5692E3E76F56A96ADB)
Полное имя : D:\The.Demon.2016.Pk.WEB-DL.72Op.mkv
Формат : Matroska
Версия формата : Version 2
Размер файла : 2,91 Гбайт
Продолжительность : 1 ч. 13 м.
Режим общего битрейта : Переменный
Общий поток : 5666 Кбит/сек
Дата кодирования : UTC 2019-04-06 09:46:07
Программа кодирования : mkvmerge v8.3.0 ('Over the Horizon') 64bit
Библиотека кодирования : libebml v1.3.1 + libmatroska v1.4.2

Видео
Идентификатор : 1
Формат : AVC
Формат/Информация : Advanced Video Codec
Профиль формата : High@L4.1
Параметр CABAC формата : Да
Параметр RefFrames формата : 4 кадра
Идентификатор кодека : V_MPEG4/ISO/AVC
Продолжительность : 1 ч. 13 м.
Вид битрейта : Переменный
Битрейт : 5380 Кбит/сек
Максимальный битрейт : 6000 Кбит/сек
Ширина : 1280 пикселей
Высота : 530 пикселей
Соотношение сторон : 2,40:1
Режим частоты кадров : Постоянный
Частота кадров : 23,976 (24000/1001) кадра/сек
Стандарт вещания : Component
Цветовое пространство : YUV
Субдискретизация насыщенности : 4:2:0
Битовая глубина : 8 бит
Тип развёртки : Прогрессивная
Бит/(Пиксели*Кадры) : 0.318
Размер потока : 2,66 Гбайт (91%)
Default : Да
Forced : Нет
Цветовой диапазон : Limited
Основные цвета : BT.709
Характеристики трансфера : BT.709
Коэффициенты матрицы : BT.709

Аудио
Идентификатор : 2
Формат : AC-3
Формат/Информация : Audio Coding 3
Расширение режима : CM (complete main)
Параметр Endianness формата : Big
Идентификатор кодека : A_AC3
Продолжительность : 1 ч. 13 м.
Вид битрейта : Постоянный
Битрейт : 384 Кбит/сек
Каналы : 2 канала
Расположение каналов : Front: L R
Частота : 48,0 КГц
Частота кадров : 31,250 кадров/сек (1536 spf)
Метод сжатия : С потерями
Размер потока : 202 Мбайт (7%)
Default : Да
Forced : Нет

pb.wtf



Скачать Демон через торрент https://c.radikal.ru/c05/1904/b1/4e5aa47a65ba.jpg Скачать фильм Демон через торрент бесплантно в хорошем качестве Описание: Одна вечеринка в канун Нового Года принимает тревожный оборот в этой сверхъестественной истории ужасов. Группа друзей собирается ... 10 10 2
Торрент: Зарегистрирован [2019-04-07 10:04] · скачан: 11 раз
Статус: T временная
Размер: 2.91 GB
Как cкачать? Как скачать Демон через торрент | qTorrent

% Раздел Тема Автор DL S | L
T Фильмы (мультфильмы) cо спонсором показа (Новинки AVI/MKV) [ 2.4 GB ] Демон Игл Рока / The Demon of Eagle Rock [2018 WEB-DL 720p] MVO ["Синема УС"] bober100 Скачать
1 | 0
T Фильмы (мультфильмы) cо спонсором показа (Новинки AVI/MKV) [ 698 MB ] Демон Игл Рока / The Demon of Eagle Rock [2018 WEB-DLRip] MVO ["Синема УС"] bober100 Скачать
1 | 0
Ultra HD (UHD: 2K, 4K, 8K) — видео сверхвысокой чёткости [ 38.44 GB ] Неоновый демон / The Neon Demon [2016 UHD BDRemux 2160p] [SDR] 2xAVO+MVO+ bober100 Скачать
1 | 0
# Фильмы (мультфильмы) cо спонсором показа (Новинки AVI/MKV) [ 5.53 GB ] Путешествие на Запад: Демоны / Journey to the West: Demon Chapter / Xi you fu yao pian [2017 BDRip 720p] MVO ["Синема УС"] bober100 Скачать
1 | 0
T Фильмы (мультфильмы) cо спонсором показа (Новинки AVI/MKV) [ 1.37 GB ] Путешествие на Запад: Демоны / Journey to the West: Demon Chapter / Xi you fu yao pian [2017 HDRip] MVO ["Синема УС"] bober100 Скачать
1 | 0
T Иностранные мультфильмы [ 1.37 GB ] Константин: Город демонов / Constantine City of Demons: The Movie [2018 Мультфильм BDRip] MVO [HDrezka Studio] - ExKinoRay Enigma2010 Скачать
34 | 0
T Фильмы (мультфильмы) cо спонсором показа (Новинки AVI/MKV) [ 1.35 GB ] Демон / The Demon [2016 WEB-DLRip] MVO [КОЛОБОК] bober100 Скачать
1 | 0

28-11-2019 20:33  

Отключить всю рекламу на сайте

    Дорогой пользователь! Огромная просьба, поблагодарите релизера, оцените раздачу и оставьте свои комментарий, если Вы скачали Демон через торрент бесплатно! Внесите свою лепту в развитие PiratBit!
    Комментировать посты могут только пользователи прошедшие не сложную регистрацию
    Показать сообщения:    

    Демон через торрент
    Скачать бесплатно Демон
    Демон скачать торрент
    Демон смотреть онлайн
    Cкачать фильм Демон бесплатно
    Демон скачать торрент в хорошем качестве
    Демон смотреть онлайн бесплатно в хорошем качестве


    Вы не можете начинать темы
    Вы не можете отвечать на сообщения
    Вы не можете редактировать свои сообщения
    Вы не можете удалять свои сообщения
    Вы не можете голосовать в опросах
    Вы не можете прикреплять файлы к сообщениям
    Вы можете скачивать файлы