Ссылка на приватное зеркало всего за 1$. Внимание количество ограничено!!!

OK

1+1

iTunes

мы

OK

1

WEB-DLRip

Джокер

Пифагор

Ведьмак / The Witcher сериал

iTunes

ПШазам

ОК

Оно 2

iTunes

30
pack

Вам бонус

ВАЖНО

!!Акция!!

Alien_RageХит недели

RePack

Resident Evil 21

ИГРА 18+

pack

RePack

jed

RePack

fifa19

RePack

Assassins Creed: Odyssey

RePack

NEED FOR SPEED™ PAYBACK

4 сезон

9 сезон

Бесстыжие 9 сезон

Все сериалы

все сериалы на PB.wtf

RePack

FAR CRY 5
  

Планета Сингл 2 / Planeta Singli 2 (Сэм Акина) [2018, мелодрама, комедия, BDRip 720p] MVO ["Синема УС"] pb.wtf

Планета Сингл 2 через торрент pb.wtf

Размер: 5.85 GB | Добавлен: 9 мес. назад | Торрент скачан:9 раз
Скачать  

07-04-2019 12:25 Планета Сингл 2 Скачать торрент  

Планета Сингл 2 / Planeta Singli 2Год выпуска: 2018
Страна: Польша
Жанр: мелодрама, комедия
Продолжительность: 01:59:00
Перевод: Любительский (многоголосый) | "Синема УС"
Субтитры: отсутствуют

Режиссер: Сэм Акина

rating

В ролях:

Агнешка Вендлоха, Мачей Штур, Данута Стенка, Петр Гловацкий, Вероника Кщёжкевич, Томаш Кароляк, Джоанна Ярмолович, Александар Миличевич, Камил Кула, Изабелла Мико

Описание:

В отношениях Анны и Томека наступил кризис. Будучи шоуменом, Томек и не думает остепеняться, в то время как Ане не терпится обзавестись семьей.

Качество: BDRip 720p
Формат: MKV

Видео: h.264, 6 587 Кбит/с, 1280x536
Аудио#1: Русский (AC3, 2 ch, 448 Кбит/с)
скриншот  скриншот  скриншот  

Общее
Уникальный идентификатор : 238604881193540415150993554486455419977 (0xB381A0E91887275996B5F45B5423C449)
Полное имя : D:\planeta.singli.2.2018.P.BDRip.72Op.mkv
Формат : Matroska
Версия формата : Version 2
Размер файла : 5,85 Гбайт
Продолжительность : 1 ч. 59 м.
Режим общего битрейта : Переменный
Общий поток : 7037 Кбит/сек
Дата кодирования : UTC 2019-04-07 08:33:12
Программа кодирования : mkvmerge v8.3.0 ('Over the Horizon') 64bit
Библиотека кодирования : libebml v1.3.1 + libmatroska v1.4.2

Видео
Идентификатор : 1
Формат : AVC
Формат/Информация : Advanced Video Codec
Профиль формата : High@L4.1
Параметр CABAC формата : Да
Параметр RefFrames формата : 4 кадра
Идентификатор кодека : V_MPEG4/ISO/AVC
Продолжительность : 1 ч. 59 м.
Вид битрейта : Переменный
Битрейт : 6587 Кбит/сек
Максимальный битрейт : 7500 Кбит/сек
Ширина : 1280 пикселей
Высота : 536 пикселей
Соотношение сторон : 2,40:1
Режим частоты кадров : Постоянный
Частота кадров : 23,976 (24000/1001) кадра/сек
Стандарт вещания : Component
Цветовое пространство : YUV
Субдискретизация насыщенности : 4:2:0
Битовая глубина : 8 бит
Тип развёртки : Прогрессивная
Бит/(Пиксели*Кадры) : 0.392
Размер потока : 5,36 Гбайт (92%)
Default : Да
Forced : Нет
Цветовой диапазон : Limited
Основные цвета : BT.709
Характеристики трансфера : BT.709
Коэффициенты матрицы : BT.709

Аудио
Идентификатор : 2
Формат : AC-3
Формат/Информация : Audio Coding 3
Расширение режима : CM (complete main)
Параметр Endianness формата : Big
Идентификатор кодека : A_AC3
Продолжительность : 1 ч. 59 м.
Вид битрейта : Постоянный
Битрейт : 448 Кбит/сек
Каналы : 2 канала
Расположение каналов : Front: L R
Частота : 48,0 КГц
Частота кадров : 31,250 кадров/сек (1536 spf)
Метод сжатия : С потерями
Размер потока : 381 Мбайт (6%)
Default : Да
Forced : Нет

pb.wtf



Скачать Планета Сингл 2 через торрент https://c.radikal.ru/c05/1904/2f/c22db53eb654.jpg Скачать фильм Планета Сингл 2 через торрент бесплантно в хорошем качестве Описание: В отношениях Анны и Томека наступил кризис. Будучи шоуменом, Томек и не думает остепеняться, в то время как Ане не терпится ... 7 10 3
Торрент: Зарегистрирован [2019-04-07 12:25] · скачан: 9 раз
Статус: T временная
Размер: 5.85 GB
Как cкачать? Как скачать Планета Сингл 2 через торрент | qTorrent

% Раздел Тема Автор DL S | L
T Фильмы (мультфильмы) cо спонсором показа (Новинки AVI/MKV) [ 2.05 GB ] Планета Сингл 2 / Planeta Singli 2 [2018 HDRip] MVO ["Синема УС"] bober100 Скачать
1 | 0
T Фильмы (мультфильмы) cо спонсором показа (Новинки AVI/MKV) [ 1.37 GB ] Планета Сингл 2 / Planeta Singli 2 [2018 HDRip] MVO ["Синема УС"] bober100 Скачать
1 | 0

28-11-2019 20:33  

Отключить всю рекламу на сайте

    Дорогой пользователь! Огромная просьба, поблагодарите релизера, оцените раздачу и оставьте свои комментарий, если Вы скачали Планета Сингл 2 через торрент бесплатно! Внесите свою лепту в развитие PiratBit!
    Комментировать посты могут только пользователи прошедшие не сложную регистрацию
    Показать сообщения:    

    Планета Сингл 2 через торрент
    Скачать бесплатно Планета Сингл 2
    Планета Сингл 2 скачать торрент
    Планета Сингл 2 смотреть онлайн
    Cкачать фильм Планета Сингл 2 бесплатно
    Планета Сингл 2 скачать торрент в хорошем качестве
    Планета Сингл 2 смотреть онлайн бесплатно в хорошем качестве


    Вы не можете начинать темы
    Вы не можете отвечать на сообщения
    Вы не можете редактировать свои сообщения
    Вы не можете удалять свои сообщения
    Вы не можете голосовать в опросах
    Вы не можете прикреплять файлы к сообщениям
    Вы можете скачивать файлы