Ссылка на приватное зеркало всего за 1$. Внимание количество ограничено!!!

OK

1+1

iTunes

мы

OK

1

WEB-DLRip

Джокер

Пифагор

Ведьмак / The Witcher сериал

iTunes

ПШазам

ОК

Оно 2

iTunes

30
pack

Вам бонус

ВАЖНО

!!Акция!!

Alien_RageХит недели

RePack

Resident Evil 21

ИГРА 18+

pack

RePack

jed

RePack

fifa19

RePack

Assassins Creed: Odyssey

RePack

NEED FOR SPEED™ PAYBACK

4 сезон

9 сезон

Бесстыжие 9 сезон

Все сериалы

все сериалы на PB.wtf

RePack

FAR CRY 5
  

Дом резни 2 / Slasher House 2 (Мидж Диксон) [2016, ужасы, боевик, триллер, WEB-DL 720p] MVO [КОЛОБОК] pb.wtf

Дом резни 2 через торрент pb.wtf

Размер: 4.1 GB | Добавлен: 9 мес. назад | Торрент скачан:6 раз
Скачать  

07-04-2019 15:49 Дом резни 2 Скачать торрент  

Дом резни 2 / Slasher House 2 Год выпуска: 2016
Страна: Великобритания
Жанр: ужасы, боевик, триллер
Продолжительность: 01:42:52
Перевод: Любительский (многоголосый) | КОЛОБОК
Субтитры: отсутствуют

Режиссер: Мидж Диксон

rating

В ролях: Франческа Луиза Уайт, Луна Вулф, Софи Портман, Сэм Каллингворт, Дэвид Хон Ма Чу, Веллингтон Гросвенор, Тиана Роджерс, Джеми Бен Чэмберс, Уильям Маршалл, Джейн Хаслхерст

Описание: Рыжий Ангел, убийца убийц - наша героиня прославилась своей тягой к правосудию. Но сколько бы серийных убийц она бы она устранила, её истиннной целью является лишь один человек - её отец. Таинственная организация похищает серийных убийц по всей Англии, и возможно именно в ней Рыжая найдёт все ответы.

Качество: WEB-DL 720p
Формат: MKV

Видео: 5323 Кбит/с, 1280x536
Аудио#1: Русский, (AC3, 2 ch, 384 Кбит/с)
скриншот  скриншот  скриншот  

Общее
Уникальный идентификатор : 216868443956005166897521950684367323734 (0xA32757D035464E6C85CCAD08F2208256)
Полное имя : D:\SLASHER_HOUSE_2.2016.Pk.WEB-DL.72Op.mkv
Формат : Matroska
Версия формата : Version 2
Размер файла : 4,10 Гбайт
Продолжительность : 1 ч. 42 м.
Режим общего битрейта : Переменный
Общий поток : 5709 Кбит/сек
Дата кодирования : UTC 2019-04-06 10:06:24
Программа кодирования : mkvmerge v8.3.0 ('Over the Horizon') 64bit
Библиотека кодирования : libebml v1.3.1 + libmatroska v1.4.2

Видео
Идентификатор : 1
Формат : AVC
Формат/Информация : Advanced Video Codec
Профиль формата : High@L4.1
Параметр CABAC формата : Да
Параметр RefFrames формата : 4 кадра
Идентификатор кодека : V_MPEG4/ISO/AVC
Продолжительность : 1 ч. 42 м.
Вид битрейта : Переменный
Битрейт : 5323 Кбит/сек
Максимальный битрейт : 6000 Кбит/сек
Ширина : 1280 пикселей
Высота : 536 пикселей
Соотношение сторон : 2,40:1
Режим частоты кадров : Постоянный
Частота кадров : 23,976 (24000/1001) кадра/сек
Стандарт вещания : Component
Цветовое пространство : YUV
Субдискретизация насыщенности : 4:2:0
Битовая глубина : 8 бит
Тип развёртки : Прогрессивная
Бит/(Пиксели*Кадры) : 0.317
Размер потока : 3,74 Гбайт (91%)
Default : Да
Forced : Нет
Цветовой диапазон : Limited
Основные цвета : BT.709
Характеристики трансфера : BT.709
Коэффициенты матрицы : BT.709

Аудио
Идентификатор : 2
Формат : AC-3
Формат/Информация : Audio Coding 3
Расширение режима : CM (complete main)
Параметр Endianness формата : Big
Идентификатор кодека : A_AC3
Продолжительность : 1 ч. 42 м.
Вид битрейта : Постоянный
Битрейт : 384 Кбит/сек
Каналы : 2 канала
Расположение каналов : Front: L R
Частота : 48,0 КГц
Частота кадров : 31,250 кадров/сек (1536 spf)
Метод сжатия : С потерями
Размер потока : 283 Мбайт (7%)
Default : Да
Forced : Нет

pb.wtf



Скачать Дом резни 2 через торрент https://b.radikal.ru/b03/1904/d1/19223aad9802.jpg Скачать фильм Дом резни 2 через торрент бесплантно в хорошем качестве Описание: Рыжий Ангел, убийца убийц - наша героиня прославилась своей тягой к правосудию. Но сколько бы серийных убийц она бы она ... 10 10 2
Торрент: Зарегистрирован [2019-04-07 15:49] · скачан: 6 раз
Статус: T временная
Размер: 4.1 GB
Как cкачать? Как скачать Дом резни 2 через торрент | qTorrent

% Раздел Тема Автор DL S | L
T Фильмы (мультфильмы) cо спонсором показа (Новинки AVI/MKV) [ 1.37 GB ] Дом резни 2 / Slasher House 2 [2016 WEB-DLRip] MVO [КОЛОБОК] bober100 Скачать
1 | 0

28-11-2019 20:33  

Отключить всю рекламу на сайте

    Дорогой пользователь! Огромная просьба, поблагодарите релизера, оцените раздачу и оставьте свои комментарий, если Вы скачали Дом резни 2 через торрент бесплатно! Внесите свою лепту в развитие PiratBit!
    Комментировать посты могут только пользователи прошедшие не сложную регистрацию
    Показать сообщения:    

    Дом резни 2 через торрент
    Скачать бесплатно Дом резни 2
    Дом резни 2 скачать торрент
    Дом резни 2 смотреть онлайн
    Cкачать фильм Дом резни 2 бесплатно
    Дом резни 2 скачать торрент в хорошем качестве
    Дом резни 2 смотреть онлайн бесплатно в хорошем качестве


    Вы не можете начинать темы
    Вы не можете отвечать на сообщения
    Вы не можете редактировать свои сообщения
    Вы не можете удалять свои сообщения
    Вы не можете голосовать в опросах
    Вы не можете прикреплять файлы к сообщениям
    Вы можете скачивать файлы