Ссылка на приватное зеркало всего за 1$. Внимание количество ограничено!!!

OK

1+1

iTunes

мы

OK

1

WEB-DLRip

Джокер

Пифагор

Ведьмак / The Witcher сериал

iTunes

ПШазам

ОК

Оно 2

iTunes

30
pack

Вам бонус

ВАЖНО

!!Акция!!

Alien_RageХит недели

RePack

Resident Evil 21

ИГРА 18+

pack

RePack

jed

RePack

fifa19

RePack

Assassins Creed: Odyssey

RePack

NEED FOR SPEED™ PAYBACK

4 сезон

9 сезон

Бесстыжие 9 сезон

Все сериалы

все сериалы на PB.wtf

RePack

FAR CRY 5
  

Жаркий поцелуй / Burning Kiss (Робби Студсор) [2018, Триллер, WEB-DL 720p] MVO ["Синема УС"] pb.wtf

Жаркий поцелуй через торрент pb.wtf

Размер: 3.24 GB | Добавлен: 9 мес. назад | Торрент скачан:9 раз
Скачать  

07-04-2019 16:05 Жаркий поцелуй Скачать торрент  

Жаркий поцелуй / Burning Kiss Год выпуска: 2018
Страна: Австралия
Жанр: Триллер
Продолжительность: 01:21:32
Перевод: Любительский (многоголосый) | "Синема УС"
Субтитры: отсутствуют

Режиссер: Робби Студсор

rating

В ролях: Лайам Грэхэм, Элисон Уолкер, Ричард Меллик, Кристи Систранк, Нина Дизли, Хлоя Браун

Описание: Фильм представляет собой нуар-коктейль из психоделики и пессимизма, с добавлением запутанной интриги. Неожиданное появление незнакомца раскрывает страшную тайну и усложняет отношения между отцом и дочерью.

Качество: WEB-DL 720p
Формат: MKV

Видео: 5306 Кбит/с, 1280x538
Аудио#1: Русский, (AC3, 2 ch, 384 Кбит/с)
скриншот  скриншот  скриншот  

Общее
Уникальный идентификатор : 240967609581898105722676614003474169624 (0xB548AC69FAC14BCA91EB3D81E0C9FF18)
Полное имя : D:\Burning.Kiss.2018.P.WEB-DL.72Op.mkv
Формат : Matroska
Версия формата : Version 2
Размер файла : 3,24 Гбайт
Продолжительность : 1 ч. 21 м.
Режим общего битрейта : Переменный
Общий поток : 5691 Кбит/сек
Дата кодирования : UTC 2019-04-06 08:54:00
Программа кодирования : mkvmerge v8.3.0 ('Over the Horizon') 64bit
Библиотека кодирования : libebml v1.3.1 + libmatroska v1.4.2

Видео
Идентификатор : 1
Формат : AVC
Формат/Информация : Advanced Video Codec
Профиль формата : High@L4.1
Параметр CABAC формата : Да
Параметр RefFrames формата : 4 кадра
Идентификатор кодека : V_MPEG4/ISO/AVC
Продолжительность : 1 ч. 21 м.
Вид битрейта : Переменный
Битрейт : 5306 Кбит/сек
Максимальный битрейт : 6000 Кбит/сек
Ширина : 1280 пикселей
Высота : 538 пикселей
Соотношение сторон : 2,40:1
Режим частоты кадров : Постоянный
Частота кадров : 23,976 (24000/1001) кадра/сек
Стандарт вещания : Component
Цветовое пространство : YUV
Субдискретизация насыщенности : 4:2:0
Битовая глубина : 8 бит
Тип развёртки : Прогрессивная
Бит/(Пиксели*Кадры) : 0.315
Размер потока : 2,96 Гбайт (91%)
Default : Да
Forced : Нет
Цветовой диапазон : Limited
Основные цвета : BT.709
Характеристики трансфера : BT.709
Коэффициенты матрицы : BT.709

Аудио
Идентификатор : 2
Формат : AC-3
Формат/Информация : Audio Coding 3
Расширение режима : CM (complete main)
Параметр Endianness формата : Big
Идентификатор кодека : A_AC3
Продолжительность : 1 ч. 21 м.
Вид битрейта : Постоянный
Битрейт : 384 Кбит/сек
Каналы : 2 канала
Расположение каналов : Front: L R
Частота : 48,0 КГц
Частота кадров : 31,250 кадров/сек (1536 spf)
Метод сжатия : С потерями
Размер потока : 224 Мбайт (7%)
Default : Да
Forced : Нет

pb.wtf



Скачать Жаркий поцелуй через торрент https://a.radikal.ru/a13/1904/54/a9e89c6b7824.jpg Скачать фильм Жаркий поцелуй через торрент бесплантно в хорошем качестве Описание: Фильм представляет собой нуар-коктейль из психоделики и пессимизма, с добавлением запутанной интриги. Неожиданное появление ... 7.7 10 3
Торрент: Зарегистрирован [2019-04-07 16:05] · скачан: 9 раз
Статус: T временная
Размер: 3.24 GB
Как cкачать? Как скачать Жаркий поцелуй через торрент | qTorrent

% Раздел Тема Автор DL S | L
T Фильмы (мультфильмы) cо спонсором показа (Новинки AVI/MKV) [ 1.37 GB ] Жаркий поцелуй / Burning Kiss [2018 WEB-DLRip] MVO ["Синема УС"] bober100 Скачать
1 | 0

28-11-2019 20:33  

Отключить всю рекламу на сайте

    Дорогой пользователь! Огромная просьба, поблагодарите релизера, оцените раздачу и оставьте свои комментарий, если Вы скачали Жаркий поцелуй через торрент бесплатно! Внесите свою лепту в развитие PiratBit!
    Комментировать посты могут только пользователи прошедшие не сложную регистрацию
    Показать сообщения:    

    Жаркий поцелуй через торрент
    Скачать бесплатно Жаркий поцелуй
    Жаркий поцелуй скачать торрент
    Жаркий поцелуй смотреть онлайн
    Cкачать фильм Жаркий поцелуй бесплатно
    Жаркий поцелуй скачать торрент в хорошем качестве
    Жаркий поцелуй смотреть онлайн бесплатно в хорошем качестве


    Вы не можете начинать темы
    Вы не можете отвечать на сообщения
    Вы не можете редактировать свои сообщения
    Вы не можете удалять свои сообщения
    Вы не можете голосовать в опросах
    Вы не можете прикреплять файлы к сообщениям
    Вы можете скачивать файлы