Ссылка на приватное зеркало нашего сайта всего за 1$. Внимание количество ограничено!!!

2 сезон

iTunes

iTunes

1

iTunes

iTunes

iTunes

WEBRip

iTunes

30
pack

Новость дня

ВАЖНО

!!Акция!!

Alien_RageХит недели

RePack

Horizon Zero Dawn

ИГРА 18+

pack

RePack

jed

!!Акция!!

Alien_Rage

RePack

fifa19

RePack

Assassins Creed: Odyssey

RePack

NEED FOR SPEED™ PAYBACK

4 сезон

9 сезон

Бесстыжие 9 сезон

Все сериалы

все сериалы на PB.wtf

RePack

FAR CRY 5
  

Дивизион 19 / Division 19 (Сьюзи Хэйлвуд) [2017, фантастика, боевик, триллер, WEB-DL 720p] MVO ["Синема УС"] pb.wtf

Дивизион 19 через торрент pb.wtf

Размер: 3.71 GB | Добавлен: 1 год 5 мес. назад | Торрент скачан:151 раз
Скачать  

07-04-2019 18:22 Дивизион 19 Скачать торрент  

Дивизион 19 / Division 19
Год выпуска: 2017
Страна: Великобритания, США
Жанр: фантастика, боевик, триллер
Продолжительность: 01:34:59
Перевод: Любительский (многоголосый) | "Синема УС"
Субтитры: отсутствуют

Режиссер: Сьюзи Хэйлвуд

rating

В ролях:

Лайнас Роуч, Лотта Вербек, Элисон Дуди, Тим Джо, Л. Скотт Колдуэлл, Кларк Питерс, Уилл Ротхаар, Дэниэл Ньюман, Тоби Хемингуэй, Джэми Дрэйвен

Описание:

2039 год. Федеральные тюрьмы превращены в интернет-порталы, где простые пользователи могут выбирать что будут смотреть и есть заключенные, какую одежду они станут носить и с кем им придется драться за место на шконке,

Хардин Джонс был в Сети самым популярным зеком. Онлайн-просмотры его тюремных будней приносили Джонсу каждый день приличные деньги, но это не остановило зека от побега. Не успев толком подышать воздухом свободы, беглец узнает, что его брат тоже оказался за решеткой. В новой и современной тюрьме онлайн-портала Panopticon TV, тюрьме размером с целый город.

Качество: WEB-DL 720p
Формат: MKV

Видео: h.264,5 209 Кбит/с, 1280x536
Аудио: Русский, (AC3, 2 ch, 384 Кбит/с)
скриншот  скриншот  скриншот  

Общее
Уникальный идентификатор : 187396839743333512947589251750577908983 (0x8CFB518A2AF02D3DA07F586958652CF7)
Полное имя : D:\Division.19.2017.P.WEB-DL.72Op.mkv
Формат : Matroska
Версия формата : Version 2
Размер файла : 3,71 Гбайт
Продолжительность : 1 ч. 34 м.
Режим общего битрейта : Переменный
Общий поток : 5594 Кбит/сек
Дата кодирования : UTC 2019-04-07 16:47:39
Программа кодирования : mkvmerge v8.3.0 ('Over the Horizon') 64bit
Библиотека кодирования : libebml v1.3.1 + libmatroska v1.4.2

Видео
Идентификатор : 1
Формат : AVC
Формат/Информация : Advanced Video Codec
Профиль формата : High@L4.1
Параметр CABAC формата : Да
Параметр RefFrames формата : 4 кадра
Идентификатор кодека : V_MPEG4/ISO/AVC
Продолжительность : 1 ч. 34 м.
Вид битрейта : Переменный
Битрейт : 5209 Кбит/сек
Максимальный битрейт : 6000 Кбит/сек
Ширина : 1280 пикселей
Высота : 536 пикселей
Соотношение сторон : 2,40:1
Режим частоты кадров : Постоянный
Частота кадров : 23,976 (24000/1001) кадра/сек
Стандарт вещания : Component
Цветовое пространство : YUV
Субдискретизация насыщенности : 4:2:0
Битовая глубина : 8 бит
Тип развёртки : Прогрессивная
Бит/(Пиксели*Кадры) : 0.310
Размер потока : 3,38 Гбайт (91%)
Default : Да
Forced : Нет
Цветовой диапазон : Limited
Основные цвета : BT.709
Характеристики трансфера : BT.709
Коэффициенты матрицы : BT.709

Аудио
Идентификатор : 2
Формат : AC-3
Формат/Информация : Audio Coding 3
Расширение режима : CM (complete main)
Параметр Endianness формата : Big
Идентификатор кодека : A_AC3
Продолжительность : 1 ч. 34 м.
Вид битрейта : Постоянный
Битрейт : 384 Кбит/сек
Каналы : 2 канала
Расположение каналов : Front: L R
Частота : 48,0 КГц
Частота кадров : 31,250 кадров/сек (1536 spf)
Метод сжатия : С потерями
Размер потока : 261 Мбайт (7%)
Default : Да
Forced : Нет

pb.wtf



Скачать Дивизион 19 через торрент https://b.radikal.ru/b07/1904/2e/45484259db7a.jpg Скачать фильм Дивизион 19 через торрент бесплантно в хорошем качестве Описание: 2039 год. Федеральные тюрьмы превращены в интернет-порталы, где простые пользователи могут выбирать что будут смотреть и есть ... 9.9 10 7
Торрент: Зарегистрирован [2019-04-07 18:22] · скачан: 151 раз
Статус: T временная
Размер: 3.71 GB
Как cкачать? Как скачать Дивизион 19 через торрент | qTorrent

% Раздел Тема Автор DL S | L
T Фильмы (мультфильмы) cо спонсором показа (Новинки AVI/MKV) [ 1.37 GB ] Дивизион 19 / Division 19 [2017 WEB-DLRip] MVO ["Синема УС"] bober100 Скачать
1 | 0

28-11-2019 20:33  

Отключить всю рекламу на сайте

    Дорогой пользователь! Огромная просьба, поблагодарите релизера, оцените раздачу и оставьте свои комментарий, если Вы скачали Дивизион 19 через торрент бесплатно! Внесите свою лепту в развитие PiratBit!
    Комментировать посты могут только пользователи прошедшие не сложную регистрацию
    Показать сообщения:    

    Дивизион 19 через торрент
    Скачать бесплатно Дивизион 19
    Дивизион 19 скачать торрент
    Дивизион 19 смотреть онлайн
    Cкачать фильм Дивизион 19 бесплатно
    Дивизион 19 скачать торрент в хорошем качестве
    Дивизион 19 смотреть онлайн бесплатно в хорошем качестве


    Вы не можете начинать темы
    Вы не можете отвечать на сообщения
    Вы не можете редактировать свои сообщения
    Вы не можете удалять свои сообщения
    Вы не можете голосовать в опросах
    Вы не можете прикреплять файлы к сообщениям
    Вы можете скачивать файлы