Ссылка на приватное зеркало всего за 1$. Внимание количество ограничено!!!

OK

1+1

iTunes

мы

OK

1

WEB-DLRip

Джокер

Пифагор

Ведьмак / The Witcher сериал

Лицензия

ПШазам

ОК

Оно 2

iTunes

30
pack

Вам бонус

ВАЖНО

!!Акция!!

Alien_RageХит недели

RePack

Resident Evil 21

ИГРА 18+

pack

RePack

jed

RePack

fifa19

RePack

Assassins Creed: Odyssey

RePack

NEED FOR SPEED™ PAYBACK

4 сезон

9 сезон

Бесстыжие 9 сезон

Все сериалы

все сериалы на PB.wtf

RePack

FAR CRY 5
  

Инопланетное оружие / Alien Warfare (Джереми Джонс) [2019, фантастика, боевик, WEB-DL 720p] MVO ["Синема УС"] pb.wtf

Инопланетное оружие через торрент pb.wtf

Раздают: 1 [ 0 KB/s ]
Размер: 3.47 GB | Добавлен: 9 мес. назад | Торрент скачан:107 раз
Скачать  

07-04-2019 18:36 Инопланетное оружие Скачать торрент  

Инопланетное оружие / Alien Warfare Год выпуска: 2019
Страна: США
Жанр: фантастика, боевик
Продолжительность: 01:29:06
Перевод: Любительский (многоголосый) | "Синема УС"
Субтитры: отсутствуют

Режиссер: Джереми Джонс

rating

В ролях:

Клэйтон Снайдер, Дэйв Медоуз, Даниэль Вашингтон, Скотт С. Роу, Лариса Андраде, Скотт Хоффман, Кейтлин Хилл, Тейлор Вейл, Адам Веплер, Мэри Паолино

Описание:

Отряд морских котиков получил приказ расследовать ситуацию в секретном научном комплексе, с которым внезапно прекратилась связь. Как оказалось, в комплексе хранится неизвестный внеземной объект, погубивший работающих там ученых. Неожиданно на базу нападают враждебные инопланетяне, от которых придется отбиваться главным героям.

Качество: WEB-DL 720p
Формат: MKV

Видео: h.264,5 190 Кбит/с, 1280x720
Аудио#1: Русский, (AC3, 2 ch, 384 Кбит/с)
скриншот  скриншот  скриншот  

Общее
Уникальный идентификатор : 189848418878984664604616921317522221098 (0x8ED379B9257E5187B4138276D837282A)
Полное имя : D:\AlienWarfare.2019.P.WEB-DL.72Op.mkv
Формат : Matroska
Версия формата : Version 2
Размер файла : 3,47 Гбайт
Продолжительность : 1 ч. 29 м.
Режим общего битрейта : Переменный
Общий поток : 5576 Кбит/сек
Дата кодирования : UTC 2019-04-07 16:44:41
Программа кодирования : mkvmerge v8.3.0 ('Over the Horizon') 64bit
Библиотека кодирования : libebml v1.3.1 + libmatroska v1.4.2

Видео
Идентификатор : 1
Формат : AVC
Формат/Информация : Advanced Video Codec
Профиль формата : High@L4.1
Параметр CABAC формата : Да
Параметр RefFrames формата : 4 кадра
Идентификатор кодека : V_MPEG4/ISO/AVC
Продолжительность : 1 ч. 29 м.
Вид битрейта : Переменный
Битрейт : 5190 Кбит/сек
Максимальный битрейт : 6000 Кбит/сек
Ширина : 1280 пикселей
Высота : 720 пикселей
Соотношение сторон : 16:9
Режим частоты кадров : Постоянный
Частота кадров : 23,976 (24000/1001) кадра/сек
Стандарт вещания : Component
Цветовое пространство : YUV
Субдискретизация насыщенности : 4:2:0
Битовая глубина : 8 бит
Тип развёртки : Прогрессивная
Бит/(Пиксели*Кадры) : 0.230
Размер потока : 3,16 Гбайт (91%)
Default : Да
Forced : Нет
Цветовой диапазон : Limited
Основные цвета : BT.709
Характеристики трансфера : BT.709
Коэффициенты матрицы : BT.709

Аудио
Идентификатор : 2
Формат : AC-3
Формат/Информация : Audio Coding 3
Расширение режима : CM (complete main)
Параметр Endianness формата : Big
Идентификатор кодека : A_AC3
Продолжительность : 1 ч. 29 м.
Вид битрейта : Постоянный
Битрейт : 384 Кбит/сек
Каналы : 2 канала
Расположение каналов : Front: L R
Частота : 48,0 КГц
Частота кадров : 31,250 кадров/сек (1536 spf)
Метод сжатия : С потерями
Размер потока : 245 Мбайт (7%)
Default : Да
Forced : Нет

pb.wtf



Скачать Инопланетное оружие через торрент https://a.radikal.ru/a21/1904/0b/17047d8b8094.jpg Скачать фильм Инопланетное оружие через торрент бесплантно в хорошем качестве Описание: Отряд морских котиков получил приказ расследовать ситуацию в секретном научном комплексе, с которым внезапно прекратилась связь. ... 10 10 4
Торрент: Зарегистрирован [2019-04-07 18:36] · скачан: 107 раз
Статус: T временная
Размер: 3.47 GB
Как cкачать? Как скачать Инопланетное оружие через торрент | qTorrent

% Раздел Тема Автор DL S | L
T Фильмы (мультфильмы) cо спонсором показа (Новинки AVI/MKV) [ 1.37 GB ] Инопланетное оружие / Alien Warfare [2019 WEB-DLRip] MVO ["Синема УС"] bober100 Скачать
1 | 0

28-11-2019 20:33  

Отключить всю рекламу на сайте


08-04-2019 17:59 Инопланетное оружие Скачать торрент  

ох, кАмедию подвезли! 2,4* на выходных надо будет глянуть под пивко и кальянчик :D забираю гавняшку pb.wtf



    Дорогой пользователь! Огромная просьба, поблагодарите релизера, оцените раздачу и оставьте свои комментарий, если Вы скачали Инопланетное оружие через торрент бесплатно! Внесите свою лепту в развитие PiratBit!
    Комментировать посты могут только пользователи прошедшие не сложную регистрацию
    Показать сообщения:    

    Инопланетное оружие через торрент
    Скачать бесплатно Инопланетное оружие
    Инопланетное оружие скачать торрент
    Инопланетное оружие смотреть онлайн
    Cкачать фильм Инопланетное оружие бесплатно
    Инопланетное оружие скачать торрент в хорошем качестве
    Инопланетное оружие смотреть онлайн бесплатно в хорошем качестве


    Вы не можете начинать темы
    Вы не можете отвечать на сообщения
    Вы не можете редактировать свои сообщения
    Вы не можете удалять свои сообщения
    Вы не можете голосовать в опросах
    Вы не можете прикреплять файлы к сообщениям
    Вы можете скачивать файлы