Ссылка на приватное зеркало всего за 1$. Внимание количество ограничено!!!

OK

1+1

iTunes

мы

OK

1

WEB-DLRip

Джокер

Пифагор

Ведьмак / The Witcher сериал

Лицензия

ПШазам

ОК

Оно 2

iTunes

30
pack

Вам бонус

ВАЖНО

!!Акция!!

Alien_RageХит недели

RePack

Resident Evil 21

ИГРА 18+

pack

RePack

jed

RePack

fifa19

RePack

Assassins Creed: Odyssey

RePack

NEED FOR SPEED™ PAYBACK

4 сезон

9 сезон

Бесстыжие 9 сезон

Все сериалы

все сериалы на PB.wtf

RePack

FAR CRY 5
  

Вокс люкс / Голос люкс / Vox Lux (Брэйди Корбет) [2018, Драма, музыка, BDRip 720p] DUB [iTunes] pb.wtf

Вокс люкс через торрент pb.wtf

Размер: 6.01 GB | Добавлен: 9 мес. назад | Торрент скачан:57 раз
Скачать  

08-04-2019 03:47 Вокс люкс Скачать торрент  

Вокс люкс / Голос люкс / Vox Lux
Год выпуска: 2018
Страна: США
Жанр: Драма, музыка
Продолжительность: 01:54:27
Перевод: Дублированный | iTunes
Субтитры: Русские (2 x Full), английские

Режиссер: Брэйди Корбет

rating

В ролях:

Натали Портман, Уиллем Дефо, Джуд Лоу, Кристофер Эбботт, Дженнифер Или, Рэффи Кэссиди, Стэйси Мартин, Майкл Нисон, Мария Диззия, Эрик Кинг

Описание:

В 1999 году отличница Селеста чудом выжила, когда её одноклассник устроил в школе стрельбу. Под впечатлением от несчастья она написала песню — и проснулась знаменитой. Стремительный взлет, срежиссированный опытным менеджером и подпитанный жадным интересом публики к трагедии, превратил её в мировую суперзвезду. Спустя 20 лет карьера Селесты пошла на спад, а скандальный эпизод на пресс-конференции грозит и вовсе ее уничтожить. Теперь упрямой звезде предстоит разобраться со своими личными и семейными проблемами и при этом не сойти с ума, пытаясь сохранить хрупкую грань между славой и реальной жизнью.

Качество: BDRip 720p
Формат: MKV

Видео: MPEG-4 AVC, 1200x720, 5625 Kbit/s, 23.976 fps
Аудио#1: 48 kHz, AC3, 5.1, 384 Kbps | iTunes | RUS |
Аудио#2: 48 kHz, DTS, 5.1, 1510 Kbps | Оригинал | ENG |
скриншот  скриншот  скриншот  скриншот  скриншот  

General
Unique ID : 66278743888816584897084081205103649585 (0x31DCD25E6AAC8AD2ACDFB8DC2CE16331)
Complete name : D:Video111Vox.Lux.2018.BDRip.720p.seleZen.mkv
Format : Matroska
Format version : Version 4
File size : 6.01 GiB
Duration : 1 h 54 min
Overall bit rate : 7 521 kb/s
Movie name : Vox Lux 2018 from селезень
Encoded date : UTC 2019-04-08 02:57:42
Writing application : mkvmerge v32.0.0 ('Astral Progressions') 64-bit
Writing library : libebml v1.3.7 + libmatroska v1.5.0

Video
ID : 1
Format : AVC
Format/Info : Advanced Video Codec
Format profile : High@L4.1
Format settings : CABAC / 9 Ref Frames
Format settings, CABAC : Yes
Format settings, ReFrames : 9 frames
Codec ID : V_MPEG4/ISO/AVC
Duration : 1 h 54 min
Bit rate : 5 625 kb/s
Width : 1 200 pixels
Height : 720 pixels
Display aspect ratio : 5:3
Frame rate mode : Constant
Frame rate : 23.976 (24000/1001) FPS
Color space : YUV
Chroma subsampling : 4:2:0
Bit depth : 8 bits
Scan type : Progressive
Bits/(Pixel*Frame) : 0.272
Stream size : 4.50 GiB (75%)
Title : CHD
Writing library : x264 core 155 r2867+74 66b5600 t_mod_Custom_2 [8-bit@all X86_64]
Encoding settings : cabac=1 / ref=9 / deblock=1:-3:-3 / analyse=0x3:0x113 / me=umh / subme=10 / psy=1 / fade_compensate=0.00 / psy_rd=0.90:0.10 / mixed_ref=1 / me_range=32 / chroma_me=1 / trellis=2 / 8x8dct=1 / cqm=0 / deadzone=21,11 / fast_pskip=0 / chroma_qp_offset=-2 / threads=18 / lookahead_threads=3 / sliced_threads=0 / nr=0 / decimate=1 / interlaced=0 / bluray_compat=0 / constrained_intra=0 / fgo=0 / bframes=8 / b_pyramid=2 / b_adapt=2 / b_bias=0 / direct=3 / weightb=1 / open_gop=0 / weightp=2 / keyint=250 / keyint_min=23 / scenecut=40 / intra_refresh=0 / rc_lookahead=40 / rc=crf / mbtree=0 / crf=20.0000 / qcomp=0.70 / qpmin=0:0:0 / qpmax=69:69:69 / qpstep=4 / vbv_maxrate=30000 / vbv_bufsize=30000 / crf_max=0.0 / nal_hrd=none / filler=0 / ip_ratio=1.40 / pb_ratio=1.30 / aq=3:0.90 / aq-sensitivity=10.00 / aq-factor=1.00:1.00:1.00 / aq2=0 / aq3=2:[0.50:0.50]:[0.50:0.50]:[0.50:0.50]:[0.50:0.50] / aq3-sensitivity=10.00 / aq3-factor=[1.00:1.00]:[1.00:1.00]:[1.00:1.00] / aq3-boundary=192:64:24
Language : English
Default : Yes
Forced : No
Color range : Limited
Matrix coefficients : BT.709

Audio #1
ID : 2
Format : AC-3
Format/Info : Audio Coding 3
Commercial name : Dolby Digital
Codec ID : A_AC3
Duration : 1 h 54 min
Bit rate mode : Constant
Bit rate : 384 kb/s
Channel(s) : 6 channels
Channel layout : L R C LFE Ls Rs
Sampling rate : 48.0 kHz
Frame rate : 31.250 FPS (1536 SPF)
Bit depth : 16 bits
Compression mode : Lossy
Stream size : 314 MiB (5%)
Title : iTunes
Language : Russian
Service kind : Complete Main
Default : Yes
Forced : Yes

Audio #2
ID : 3
Format : DTS
Format/Info : Digital Theater Systems
Codec ID : A_DTS
Duration : 1 h 54 min
Bit rate mode : Constant
Bit rate : 1 509 kb/s
Channel(s) : 6 channels
Channel layout : C L R Ls Rs LFE
Sampling rate : 48.0 kHz
Frame rate : 93.750 FPS (512 SPF)
Bit depth : 24 bits
Compression mode : Lossy
Stream size : 1.21 GiB (20%)
Title : Original
Language : English
Default : No
Forced : No

Text #1
ID : 4
Format : UTF-8
Codec ID : S_TEXT/UTF8
Codec ID/Info : UTF-8 Plain Text
Duration : 1 h 48 min
Bit rate : 115 b/s
Count of elements : 1640
Stream size : 91.6 KiB (0%)
Title : Full [Dark_Alice]
Language : Russian
Default : No
Forced : No

Text #2
ID : 5
Format : UTF-8
Codec ID : S_TEXT/UTF8
Codec ID/Info : UTF-8 Plain Text
Duration : 1 h 49 min
Bit rate : 117 b/s
Count of elements : 1629
Stream size : 94.2 KiB (0%)
Title : Full [PhysKids]
Language : Russian
Default : No
Forced : No

Text #3
ID : 6
Format : UTF-8
Codec ID : S_TEXT/UTF8
Codec ID/Info : UTF-8 Plain Text
Duration : 1 h 48 min
Bit rate : 72 b/s
Count of elements : 1609
Stream size : 57.4 KiB (0%)
Title : Full
Language : English
Default : No
Forced : No

Text #4
ID : 7
Format : UTF-8
Codec ID : S_TEXT/UTF8
Codec ID/Info : UTF-8 Plain Text
Duration : 1 h 48 min
Bit rate : 76 b/s
Count of elements : 1703
Stream size : 60.7 KiB (0%)
Title : SDH
Language : English
Default : No
Forced : No

Menu
00:00:00.000 : :绗?01 绔?
00:09:16.931 : :绗?02 绔?
00:17:29.173 : :绗?03 绔?
00:26:58.242 : :绗?04 绔?
00:36:10.960 : :绗?05 绔?
00:49:39.852 : :绗?06 绔?
01:11:39.128 : :绗?07 绔?
01:16:52.441 : :绗?08 绔?
01:24:37.322 : :绗?09 绔?
01:31:45.834 : :绗?10 绔?
01:36:05.343 : :绗?11 绔?
01:49:42.868 : :绗?12 绔?

pb.wtf



Скачать Вокс люкс через торрент http://img14.lostpic.net/2019/04/08/c936dfb88e307751f489fc347d02798d.jpg Скачать фильм Вокс люкс через торрент бесплантно в хорошем качестве Описание: В 1999 году отличница Селеста чудом выжила, когда её одноклассник устроил в школе стрельбу. Под впечатлением от несчастья она ... 10 10 5
Торрент: Зарегистрирован [2019-04-08 03:47] · скачан: 57 раз
Статус: √ проверено
Размер: 6.01 GB
Как cкачать? Как скачать Вокс люкс через торрент | qTorrent

% Раздел Тема Автор DL S | L
Фильмы 2018 [DVDrip, WEB-DLRip, HDrip] (DUB, MVO) [ 1.41 GB ] Вокс люкс / Голос люкс / Vox Lux [2018 музыка BDRip] - Twi7ter Скачать
1 | 0
Фильмы 2018 [DVDrip, WEB-DLRip, HDrip] (DUB, MVO) [ 2.63 GB ] Вокс люкс / Голос люкс / Vox Lux [2018 музыка BDRip-AVC] +MVO [HDRezka Studio] bober100 Скачать
1 | 0
Фильмы (Blu-ray, BD-Remux, HDDVD) [ 19.88 GB ] Вокс люкс / Голос люкс / Vox Lux [2018 музыка BD Remux 1080p] bober100 Скачать
1 | 0
Фильмы [HD 720p, 1080p] (Хороший звук DUB, MVO) [ 10.95 GB ] Вокс люкс / Голос люкс / Vox Lux [2018 музыка BDRip 1080p] bober100 Скачать
1 | 0
Фильмы 2018 [DVDrip, WEB-DLRip, HDrip] (DUB, MVO) [ 1.41 GB ] Вокс люкс / Голос люкс / Vox Lux [2018 музыка BDRip] bober100 Скачать
1 | 0

28-11-2019 20:33  

Отключить всю рекламу на сайте


    Дорогой пользователь! Огромная просьба, поблагодарите релизера, оцените раздачу и оставьте свои комментарий, если Вы скачали Вокс люкс через торрент бесплатно! Внесите свою лепту в развитие PiratBit!
    Комментировать посты могут только пользователи прошедшие не сложную регистрацию
    Показать сообщения:    

    Вокс люкс через торрент
    Скачать бесплатно Вокс люкс
    Вокс люкс скачать торрент
    Вокс люкс смотреть онлайн
    Cкачать фильм Вокс люкс бесплатно
    Вокс люкс скачать торрент в хорошем качестве
    Вокс люкс смотреть онлайн бесплатно в хорошем качестве


    Вы не можете начинать темы
    Вы не можете отвечать на сообщения
    Вы не можете редактировать свои сообщения
    Вы не можете удалять свои сообщения
    Вы не можете голосовать в опросах
    Вы не можете прикреплять файлы к сообщениям
    Вы можете скачивать файлы