Ссылка на приватное зеркало нашего сайта всего за 1$. Внимание количество ограничено!!!

2 сезон

iTunes

1 сезон

1

iTunes

iTunes

iTunes

1 сезон

RePack

30

ИГРА 18+

pack

ВАЖНО

!!Акция!!

Alien_RageХит недели

RePack

MK11
pack

Забери бонус

RePack

jed

!!Акция!!

Alien_Rage

RePack

fifa19

RePack

Assassins Creed: Odyssey

RePack

NEED FOR SPEED™ PAYBACK

4 сезон

9 сезон

Бесстыжие 9 сезон

Все сериалы

все сериалы на PB.wtf

RePack

FAR CRY 5
  

Я подарю тебе рассвет / Серии: 1-4 из 4 (Валерий Ибрагимов) [2019, Остросюжетная мелодрама, HDTVRip-AVC] pb.wtf

Я подарю тебе рассвет через торрент pb.wtf

Размер: 3.35 GB | Добавлен: 1 год 6 мес. назад | Торрент скачан:72 раза
Скачать  

08-04-2019 04:04 Я подарю тебе рассвет Скачать торрент  

Я подарю тебе рассветэ
Год выпуска: 2019
Страна: Россия, Украина
Жанр: Остросюжетная мелодрама
Продолжительность: ~ 00:55:14
Субтитры: отсутствуют

Режиссер: Валерий Ибрагимов



В ролях:

Алёна Коломина, Ксения Лукьянчикова, Кирилл Кузнецов, Алёна Хмельницкая, Анатолий Котенёв, Анна Ардова, Прохор Дубравин, Сергей Фролов (II), Наталия Васько, Татьяна Вашневская

Описание:

21-летняя Карина – в день похорон родителей узнает, что они совсем не те, за кого себя выдавали. Они – преступники, похитившие ее в 4-летнем возрасте и воспитавшие, как собственную дочь. Карина возвращается в родную семью, где для нее все чужие, – к любящему отцу и тихо ненавидящей ее мачехе. Девушку ждут новые испытания. Она влюбляется в Егора – сына женщины, которая заказала ее похищение и довела родную мать Карины до самоубийства… Более того, главная героиня сталкивается с жестким соперничеством собственной сестры за сердце возлюбленного...

Качество: HDTVRip-AVC
Формат: MKV

Видео: 1024x576, (16:9), 25 fps, AVC MPEG-4 (x264), High@L4.1 ~ 2000 kbps , 0.136 bit/pixel
Аудио: 48 kHz, АС3, 2/0 (L,R), ~192.00 kbps avg
скриншот  скриншот  скриншот  скриншот  

Общее
Уникальный идентификатор : 174228854523600553117528099209582383894 (0x831341BE525C4095AF03369119A69316)
Полное имя : C:\Ya podaryu tebe rassvet.(2018).HDTVRip.(AVC).Files-x\01.Ya.podaryu.tebe.rassvet.(2018).HDTVRip.AVC.by.Серый1779.Files-x.mkv
Формат : Matroska
Версия формата : Version 2
Размер файла : 867 Мбайт
Продолжительность : 55 м. 14 с.
Общий поток : 2193 Кбит/сек
Дата кодирования : UTC 2019-03-31 20:49:52
Программа кодирования : mkvmerge v7.8.0 ('River Man') 32bit built on Apr 3 2015 12:11:22
Библиотека кодирования : libebml v1.3.1 + libmatroska v1.4.2

Видео
Идентификатор : 1
Формат : AVC
Формат/Информация : Advanced Video Codec
Профиль формата : High@L4.1
Настройки формата : CABAC / 9 Ref Frames
Параметр CABAC формата : Да
Параметр RefFrames формата : 9 кадров
Идентификатор кодека : V_MPEG4/ISO/AVC
Продолжительность : 55 м. 14 с.
Битрейт : 2000 Кбит/сек
Ширина : 1024 пикселя
Высота : 576 пикселей
Соотношение сторон : 16:9
Режим частоты кадров : Постоянный
Частота кадров : 25,000 кадров/сек
Цветовое пространство : YUV
Субдискретизация насыщенности : 4:2:0
Битовая глубина : 8 бит
Тип развёртки : Прогрессивная
Бит/(Пиксели*Кадры) : 0.136
Размер потока : 773 Мбайт (89%)
Библиотека кодирования : x264 core 146 r2538 121396c
Настройки программы : cabac=1 / ref=9 / deblock=1:-2:-1 / analyse=0x3:0x133 / me=umh / subme=9 / psy=1 / psy_rd=1.00:0.15 / mixed_ref=1 / me_range=32 / chroma_me=1 / trellis=2 / 8x8dct=1 / cqm=0 / deadzone=21,11 / fast_pskip=0 / chroma_qp_offset=-3 / threads=18 / lookahead_threads=3 / sliced_threads=0 / nr=0 / decimate=1 / interlaced=0 / bluray_compat=0 / constrained_intra=0 / bframes=9 / b_pyramid=2 / b_adapt=2 / b_bias=0 / direct=1 / weightb=1 / open_gop=0 / weightp=2 / keyint=250 / keyint_min=25 / scenecut=40 / intra_refresh=0 / rc=2pass / mbtree=0 / bitrate=2000 / ratetol=1.0 / qcomp=0.60 / qpmin=0 / qpmax=69 / qpstep=4 / cplxblur=20.0 / qblur=0.5 / ip_ratio=1.40 / pb_ratio=1.30 / aq=2:1.00
Default : Да
Forced : Нет
Цветовой диапазон : Limited
Основные цвета : BT.709
Характеристики трансфера : BT.709
Коэффициенты матрицы : BT.709

Аудио
Идентификатор : 2
Формат : AC-3
Формат/Информация : Audio Coding 3
Коммерческое название : Dolby Digital
Идентификатор кодека : A_AC3
Продолжительность : 55 м. 14 с.
Вид битрейта : Постоянный
Битрейт : 192 Кбит/сек
Каналы : 2 канала
Channel layout : L R
Частота : 48,0 КГц
Частота кадров : 31,250 кадров/сек (1536 SPF)
Битовая глубина : 16 бит
Метод сжатия : С потерями
Размер потока : 75,9 Мбайт (9%)
ServiceKind/String : Complete Main
Default : Да
Forced : Нет

pb.wtf



Скачать Я подарю тебе рассвет через торрент https://b.radikal.ru/b30/1904/8f/a4f311281ca0.jpg Скачать фильм Я подарю тебе рассвет через торрент бесплантно в хорошем качестве Описание: 21-летняя Карина – в день похорон родителей узнает, что они совсем не те, за кого себя выдавали. Они – преступники, похитившие ее ... 10 10 2
Торрент: Зарегистрирован [2019-04-08 04:04] · скачан: 72 раз
Статус: √ проверено
Размер: 3.35 GB
Как cкачать? Как скачать Я подарю тебе рассвет через торрент | qTorrent

% Раздел Тема Автор DL S | L
T Релизы по Парсеру [Игры, Сериалы и Фильмы и другое...] [ 11.02 GB ] Я подарю тебе рассвет / Сезон: 1 / Серии: 1-4 из 4 [2018 Остросюжетная HDTV 1080i] oleg8 Скачать
1 | 0

28-11-2019 20:33  

Отключить всю рекламу на сайте

    Дорогой пользователь! Огромная просьба, поблагодарите релизера, оцените раздачу и оставьте свои комментарий, если Вы скачали Я подарю тебе рассвет через торрент бесплатно! Внесите свою лепту в развитие PiratBit!
    Комментировать посты могут только пользователи прошедшие не сложную регистрацию
    Показать сообщения:    

    Я подарю тебе рассвет через торрент
    Скачать бесплатно Я подарю тебе рассвет
    Я подарю тебе рассвет скачать торрент
    Я подарю тебе рассвет смотреть онлайн
    Cкачать фильм Я подарю тебе рассвет бесплатно
    Я подарю тебе рассвет скачать торрент в хорошем качестве
    Я подарю тебе рассвет смотреть онлайн бесплатно в хорошем качестве


    Вы не можете начинать темы
    Вы не можете отвечать на сообщения
    Вы не можете редактировать свои сообщения
    Вы не можете удалять свои сообщения
    Вы не можете голосовать в опросах
    Вы не можете прикреплять файлы к сообщениям
    Вы можете скачивать файлы