Ссылка на приватное зеркало нашего сайта всего за 1$. Внимание количество ограничено!!!

2 сезон

iTunes

1 сезон

1

2 сезон

2 сезон

iTunes

1 сезон

RePack

30

Ultimate

ВАЖНО

ИГРА 18+

pack

RePack

MK11
pack

Забери бонус

RePack

jed

!!Акция!!

Alien_Rage

RePack

fifa19

RePack

Assassins Creed: Odyssey

RePack

NEED FOR SPEED™ PAYBACK

4 сезон

9 сезон

Бесстыжие 9 сезон

Все сериалы

все сериалы на PB.wtf

RePack

FAR CRY 5
  

ОА / The OA / Сезон: 2 / Серии 1-8 из 8 (Зал Батманглидж) [2019, драма, детектив, мистика, WEBRip 720p] [MVO] (HDRezka Studio) pb.wtf

ОА через торрент pb.wtf

Размер: 7.7 GB | Добавлен: 1 год 7 мес. назад | Торрент скачан:42 раза
Скачать  

08-04-2019 04:55 ОА Скачать торрент  

ОА / The OA
Год выпуска: 2019
Страна: США
Жанр: драма, детектив, мистика
Продолжительность: ~ 01:00:00
Перевод: Профессиональный (многоголосый, закадровый) *HDRezka Studio*
Субтитры: английские

Режиссёр: Зал Батманглидж

В ролях: Иэн Александр, Уилл Брилл, Эмори Коэн, Патрик Гибсон, Брит Марлинг, Брендан Мейер, Брэндон Переа, Скотт Уилсон, Роберт Эли, Маркус Чои и др.

Описание: В центре истории девушка двадцати лет по имени Прерия Джонсон, которая возвращается домой через семь лет после загадочного исчезновения. Что с ней произошло, никто не знает, а сама девушка не рассказывает, лишь утверждает, что все это время была поблизости. Еще больше интриги добавляет чудесное прозрение девушки — до исчезновения она была слепой, поэтому членов семьи она узнает только на ощупь.

rating скриншот  

Качество: WEBRip 720p
Формат: MKV
Видео: X264, ~ 2000 kbps, 1280x594, 23.976 fps
Аудио 1: AC3, 48,0 КГц, 2 ch, 192 kbps - HDRezka Studio
Аудио 2: E-AC3, 48,0 КГц, 6 ch, 640 kbps - Eng
General
Unique ID : 238934579040520343037067646745174271773 (0xB3C12044F7D56CC2A47CFCCDBA26E71D)
Complete name : F:\The OA.s.02.720p.HDRezka\The OA.s02.e01.WEBRip 720p.HDRezka.mkv
Format : Matroska
Format version : Version 4 / Version 2
File size : 1.33 GiB
Duration : 1 h 8 min
Overall bit rate : 2 783 kb/s
Movie name : The OA.s02.e01.WEBRip 720p.HDRezka
Encoded date : UTC 2019-04-13 07:36:58
Writing application : mkvmerge v6.1.0 ('Old Devil') built on Mar 4 2013 09:10:42
Writing library : libebml v1.3.0 + libmatroska v1.4.0

Video
ID : 1
Format : AVC
Format/Info : Advanced Video Codec
Format profile : High@L4.1
Format settings : CABAC / 5 Ref Frames
Format settings, CABAC : Yes
Format settings, RefFrames : 5 frames
Codec ID : V_MPEG4/ISO/AVC
Duration : 1 h 8 min
Bit rate : 1 896 kb/s
Width : 1 280 pixels
Height : 594 pixels
Display aspect ratio : 2.2:1
Original display aspect rat : 2.2:1
Frame rate mode : Constant
Frame rate : 23.976 (24000/1001) FPS
Color space : YUV
Chroma subsampling : 4:2:0
Bit depth : 8 bits
Scan type : Progressive
Bits/(Pixel*Frame) : 0.104
Stream size : 931 MiB (68%)
Title : The OA.s02.e01.WEBRip 720p.HDRezka
Writing library : x264 core 157 r2935 545de2f
Encoding settings : cabac=1 / ref=5 / deblock=1:-3:-3 / analyse=0x3:0x113 / me=hex / subme=8 / psy=1 / psy_rd=1.00:0.15 / mixed_ref=1 / me_range=16 / chroma_me=1 / trellis=2 / 8x8dct=1 / cqm=0 / deadzone=21,11 / fast_pskip=0 / chroma_qp_offset=-2 / threads=19 / lookahead_threads=3 / sliced_threads=0 / nr=0 / decimate=1 / interlaced=0 / bluray_compat=0 / constrained_intra=0 / bframes=3 / b_pyramid=2 / b_adapt=1 / b_bias=0 / direct=3 / weightb=1 / open_gop=0 / weightp=2 / keyint=250 / keyint_min=23 / scenecut=40 / intra_refresh=0 / rc_lookahead=50 / rc=crf / mbtree=1 / crf=18.0 / qcomp=0.60 / qpmin=0 / qpmax=69 / qpstep=4 / ip_ratio=1.40 / aq=3:0.80
Language : English
Default : Yes
Forced : No
Color range : Limited
Matrix coefficients : BT.709
Statistics Tags Issue : mkvmerge v29.0.0 ('Like It Or Not') 64-bit 2019-03-22 07:24:06 / mkvmerge v6.1.0 ('Old Devil') built on Mar 4 2013 09:10:42 2019-04-13 07:36:58
FromStats_BitRate : 1950930
FromStats_Duration : 01:08:36.488000000
FromStats_FrameCount : 98697
FromStats_StreamSize : 1003872723

Audio #1
ID : 2
Format : AC-3
Format/Info : Audio Coding 3
Format settings, Endianness : Big
Codec ID : A_AC3
Duration : 1 h 8 min
Bit rate mode : Constant
Bit rate : 192 kb/s
Channel(s) : 2 channels
Channel positions : Front: L R
Sampling rate : 48.0 kHz
Frame rate : 31.250 FPS (1536 SPF)
Bit depth : 16 bits
Compression mode : Lossy
Stream size : 94.3 MiB (7%)
Title : HDRezka
Language : Russian
Service kind : Complete Main
Default : Yes
Forced : No

Audio #2
ID : 3
Format : E-AC-3
Format/Info : Enhanced Audio Coding 3
Format settings, Endianness : Big
Codec ID : A_EAC3
Duration : 1 h 8 min
Bit rate mode : Constant
Bit rate : 640 kb/s
Channel(s) : 6 channels
Channel positions : Front: L C R, Side: L R, LFE
Sampling rate : 48.0 kHz
Frame rate : 187.500 FPS (256 SPF)
Compression mode : Lossy
Stream size : 314 MiB (23%)
Title : Eng
Language : English
Service kind : Complete Main
Default : No
Forced : No
Statistics Tags Issue : mkvmerge v29.0.0 ('Like It Or Not') 64-bit 2019-03-22 07:24:06 / mkvmerge v6.1.0 ('Old Devil') built on Mar 4 2013 09:10:42 2019-04-13 07:36:58
FromStats_BitRate : 640000
FromStats_Duration : 01:08:36.896000000
FromStats_FrameCount : 128653
FromStats_StreamSize : 329351680

Text #1
ID : 4
Format : UTF-8
Codec ID : S_TEXT/UTF8
Codec ID/Info : UTF-8 Plain Text
Title : Forced
Language : English
Default : Yes
Forced : No
Statistics Tags Issue : mkvmerge v29.0.0 ('Like It Or Not') 64-bit 2019-03-22 07:24:06 / mkvmerge v6.1.0 ('Old Devil') built on Mar 4 2013 09:10:42 2019-04-13 07:36:58
FromStats_BitRate : 3
FromStats_Duration : 00:36:14.131000000
FromStats_FrameCount : 36
FromStats_StreamSize : 945

Text #2
ID : 5
Format : UTF-8
Codec ID : S_TEXT/UTF8
Codec ID/Info : UTF-8 Plain Text
Language : English
Default : No
Forced : No
Statistics Tags Issue : mkvmerge v29.0.0 ('Like It Or Not') 64-bit 2019-03-22 07:24:06 / mkvmerge v6.1.0 ('Old Devil') built on Mar 4 2013 09:10:42 2019-04-13 07:36:58
FromStats_BitRate : 50
FromStats_Duration : 01:05:08.321000000
FromStats_FrameCount : 811
FromStats_StreamSize : 24819

скриншот   скриншот   скриншот   скриншот  
pb.wtf



Скачать ОА через торрент https://i110.fastpic.ru/big/2019/0324/7b/32bc98b770ab6e266a06d6c27ab7227b.jpg Скачать фильм ОА через торрент бесплантно в хорошем качестве Описание: В центре истории девушка двадцати лет по имени Прерия Джонсон, которая возвращается домой через семь лет после загадочного ... 10 10 1
Торрент: Зарегистрирован [2019-04-13 09:54] · скачан: 42 раз
Статус: √ проверено
Размер: 7.7 GB
Как cкачать? Как скачать ОА через торрент | qTorrent

% Раздел Тема Автор DL S | L
Зарубежные сериалы [ 5.02 GB ] ОА / The OA / Сезон: 2 / Серии 1-8 из 8 [2019 WEBRip] [MVO] killermax2013 Скачать
1 | 0
Зарубежные сериалы [ 67.97 GB ] ОА / The OA / Сезон: 2 / Серии: 1-8 из 8 [2019 UHD WEBRip 2160p] MVO [LostFilm] sheker187 Скачать
1 | 0
Зарубежные сериалы [ 20.55 GB ] ОА / The OA / Сезон: 2 / Серии 1-8 из 8 [2019 WEBRip 1080p] [MVO] killermax2013 Скачать
1 | 0
Зарубежные сериалы [ 7.57 GB ] ОА / The OA / Сезон: 2 / Серии: 1-8 из 8 [2019 WEBRip 720p] MVO [Baibako] bober100 Скачать
1 | 0
Зарубежные сериалы [ 8.29 GB ] ОА / The OA / Сезон: 2 / Серии: 1-8 из 8 [2019 WEBRip 720p] [DVO] killermax2013 Скачать
1 | 0

28-11-2019 20:33  

Отключить всю рекламу на сайте

    Дорогой пользователь! Огромная просьба, поблагодарите релизера, оцените раздачу и оставьте свои комментарий, если Вы скачали ОА через торрент бесплатно! Внесите свою лепту в развитие PiratBit!
    Комментировать посты могут только пользователи прошедшие не сложную регистрацию
    Показать сообщения:    

    ОА через торрент
    Скачать бесплатно ОА
    ОА скачать торрент
    ОА смотреть онлайн
    Cкачать фильм ОА бесплатно
    ОА скачать торрент в хорошем качестве
    ОА смотреть онлайн бесплатно в хорошем качестве


    Вы не можете начинать темы
    Вы не можете отвечать на сообщения
    Вы не можете редактировать свои сообщения
    Вы не можете удалять свои сообщения
    Вы не можете голосовать в опросах
    Вы не можете прикреплять файлы к сообщениям
    Вы можете скачивать файлы