Мега распродажа FORZA HORIZON 4 ULTIMATE+ВСЕ DLC+ОНЛАЙН всего за 499р. 349 руб. (супер цена). Внимание количество ограничено!!!

iTunes

1+1

iTunes

мы

iTunes

1

1 сезон

Чернобыль

1 сезон

Ральф против интернета

Лицензия

ПШазам

8 сезон

Игра престолов

Лицензия

30
pack

ВАЖНО

!!Акция!!

Alien_RageХит недели

RePack

Resident Evil 21

ИГРА 18+

pack

RePack

Metro:Exodus

!!Акция!!

Alien_Rage

RePack

fifa19

RePack

Assassins Creed: Odyssey

RePack

NEED FOR SPEED™ PAYBACK

3 сезон

9 сезон

Бесстыжие 9 сезон

Все сериалы

все сериалы на PB.wtf

RePack

FAR CRY 5
Ребята, катастрофически не хватает 2730р. для оплаты серверов за ИЮНЬ (всвязи с блокировками трафик упал в 3 раза), 1-2р., выручайте.
  

Нулевой фокус / Zero no shôten (Ёситаро Номура) [1961, драма, криминал, детектив, BDRip 1080p by msltel] VO pb.wtf

Нулевой фокус через торрент pb.wtf

Размер: 8.57 GB | Добавлен: 3 мес. 10 д. назад | Торрент скачан:0 раз
Скачать  

08-04-2019 04:57 Нулевой фокус Скачать торрент  

Название: Нулевой фокус
Оригинальное название: Zero no shôten
Год выпуска: 1961
Страна: Япония
Жанр: драма, криминал, детектив
Продолжительность: 01:35:19
Перевод: любительский одноголосый

Режиссер: Ёситаро Номура
В ролях: Ёсико Куга, Хизуру Такачихо, Инэко Арима, Кодзи Намбара, Ко Нисимура, Садако Савамура, Ёси Като, Тацуо Нагаи, Мицуко Сакура, Таканобу Хозуми

О фильме: Через неделю после свадьбы муж Тэйко уезжает в краткосрочную командировку и не возвращается. Поиски приводят героиню в отдалённый город на севере японских островов, в место, где крутые скалы спускаются к бурному зимнему морю. Сюжет наполнен неожиданными поворотами и событиями и делает эту криминальную драму по-настоящему захватывающей... Фильм по роману Сэйтё Мацумото.



Качество: BDRip 1080p
Формат: MKV
Видео: MPEG-4 AVC, 11.2 Mбит/с, 1920x800
Аудио 1: русский, AC3, 192 kbps, 2 ch, 48 kHz [закадровый одноголосый, Idimo]
Аудио 2: японский, DTS, 1509 kbps, 2 ch, 48 kHz [оригинал]
Субтитры 1: русские
Субтитры 2: английские
Главы/чаптеры
Общее
Уникальный идентификатор : 174868529194730274311123048467321790841 (0x838E7423C377FDD8BBE31191A49B2179)
Полное имя : D:\Video\Нулевой фокус.1961.BDRip 1080p by msltel.mkv
Формат : Matroska
Версия формата : Version 4
Размер файла : 8,57 Гбайт
Продолжительность : 1 ч. 35 м.
Общий поток : 12,9 Мбит/сек
Название фильма : Rip by msltel
Дата кодирования : UTC 2019-04-08 02:03:58
Программа кодирования : mkvmerge v8.2.0 ('World of Adventure') 64bit
Библиотека кодирования : libebml v1.3.1 + libmatroska v1.4.2

Видео
Идентификатор : 1
Формат : AVC
Формат/Информация : Advanced Video Codec
Профиль формата : High@L4.1
Настройки формата : CABAC / 4 Ref Frames
Параметр CABAC формата : Да
Параметр RefFrames формата : 4 кадра
Идентификатор кодека : V_MPEG4/ISO/AVC
Продолжительность : 1 ч. 35 м.
Битрейт : 11,2 Мбит/сек
Ширина : 1920 пикселей
Высота : 800 пикселей
Соотношение сторон : 2,40:1
Режим частоты кадров : Постоянный
Частота кадров : 23,976 (24000/1001) кадра/сек
Цветовое пространство : YUV
Субдискретизация насыщенности : 4:2:0
Битовая глубина : 8 бит
Тип развёртки : Прогрессивная
Бит/(Пиксели*Кадры) : 0.303
Размер потока : 7,44 Гбайт (87%)
Библиотека кодирования : x264 core 157 r2935 545de2f
Настройки программы : cabac=1 / ref=4 / deblock=1:-2:-2 / analyse=0x3:0x113 / me=umh / subme=11 / psy=1 / psy_rd=1.00:0.15 / mixed_ref=1 / me_range=32 / chroma_me=1 / trellis=2 / 8x8dct=1 / cqm=0 / deadzone=21,11 / fast_pskip=0 / chroma_qp_offset=-3 / threads=6 / lookahead_threads=1 / sliced_threads=0 / nr=0 / decimate=1 / interlaced=0 / bluray_compat=0 / constrained_intra=0 / bframes=9 / b_pyramid=2 / b_adapt=2 / b_bias=0 / direct=1 / weightb=1 / open_gop=0 / weightp=2 / keyint=230 / keyint_min=23 / scenecut=40 / intra_refresh=0 / rc_lookahead=40 / rc=crf / mbtree=1 / crf=19.8 / qcomp=0.60 / qpmin=0 / qpmax=69 / qpstep=4 / vbv_maxrate=50000 / vbv_bufsize=62500 / crf_max=0.0 / nal_hrd=none / filler=0 / ip_ratio=1.40 / aq=1:1.00
Язык : Japanese
Default : Да
Forced : Нет

Аудио #1
Идентификатор : 2
Формат : AC-3
Формат/Информация : Audio Coding 3
Коммерческое название : Dolby Digital
Идентификатор кодека : A_AC3
Продолжительность : 1 ч. 35 м.
Вид битрейта : Постоянный
Битрейт : 192 Кбит/сек
Каналы : 2 канала
Channel layout : L R
Частота : 48,0 КГц
Частота кадров : 31,250 кадров/сек (1536 SPF)
Битовая глубина : 16 бит
Метод сжатия : С потерями
Размер потока : 131 Мбайт (1%)
Заголовок : Idimo
Язык : Russian
ServiceKind/String : Complete Main
Default : Да
Forced : Нет

Аудио #2
Идентификатор : 3
Формат : DTS
Формат/Информация : Digital Theater Systems
Идентификатор кодека : A_DTS
Продолжительность : 1 ч. 35 м.
Вид битрейта : Постоянный
Битрейт : 1509 Кбит/сек
Каналы : 2 канала
Channel layout : L R
Частота : 48,0 КГц
Частота кадров : 93,750 кадра/сек (512 SPF)
Битовая глубина : 24 бит
Метод сжатия : С потерями
Размер потока : 1,00 Гбайт (12%)
Заголовок : original
Язык : Japanese
Default : Нет
Forced : Нет

Текст #1
Идентификатор : 4
Формат : UTF-8
Идентификатор кодека : S_TEXT/UTF8
Идентификатор кодека/Информация : UTF-8 Plain Text
Продолжительность : 1 ч. 35 м.
Битрейт : 98 бит/сек
ElementCount : 1291
Размер потока : 68,9 Кбайт (0%)
Заголовок : русские
Язык : Russian
Default : Нет
Forced : Нет

Текст #2
Идентификатор : 5
Формат : UTF-8
Идентификатор кодека : S_TEXT/UTF8
Идентификатор кодека/Информация : UTF-8 Plain Text
Продолжительность : 1 ч. 35 м.
Битрейт : 57 бит/сек
ElementCount : 1288
Размер потока : 40,1 Кбайт (0%)
Заголовок : английские
Язык : English
Default : Нет
Forced : Нет

Меню
00:00:00.000 : en:01. The Uharas
00:06:38.857 : en:02. Missing
00:12:05.975 : en:03. Tracing Kenichi
00:16:01.961 : en:04. Bit by Bit
00:20:06.622 : en:05. The Murotas
00:24:51.156 : en:06. Noto Cliff
00:29:09.206 : en:07. Deceased
00:36:10.085 : en:08. Loudly Clad Woman
00:42:13.906 : en:09. Double Life
00:48:41.710 : en:10. Suicide
00:53:46.223 : en:11. A New Life
00:56:44.026 : en:12. Truths Revealed
01:03:27.429 : en:13. Teiko's Theory
01:08:19.012 : en:14. Sachiko's Version
01:12:40.106 : en:15. Sotaro's Demise
01:18:51.018 : en:16. Hisako's Story
01:33:04.711 : en:18. Enigmas Solved
01:25:57.402 : en:17. Ill Luck
01:33:04.621 : en:18. Enigmas Solved
pb.wtf



Скачать Нулевой фокус через торрент https://b.radikal.ru/b11/1904/a5/0c7833bff387.jpg Скачать фильм Нулевой фокус через торрент бесплантно в хорошем качестве О фильме: Через неделю после свадьбы муж Тэйко уезжает в краткосрочную командировку и не возвращается. Поиски приводят героиню в отдалённый ... 5 10 1
Торрент: Зарегистрирован [2019-04-08 04:57] · скачан: 0 раз
Статус: √ проверено
Размер: 8.57 GB
Как cкачать? Как скачать Нулевой фокус через торрент | qTorrent

% Раздел Тема Автор DL S | L
Азиатские фильмы [ 2.75 GB ] Нулевой фокус / Zero no shôten [1961 BDRip 720p by msltel] VO msltel Скачать
1 | 0


>> Регистрируемся здесь <<






Отзывы и комментарии о схеме читаем и пишем здесь: ---> Отзывы и комментарии о схеме

Новые благодарочки в телеграм довольных пользователей:
скриншот   скриншот   скриншот   скриншот   скриншот
    Дорогой пользователь! Огромная просьба, поблагодарите релизера, оцените раздачу и оставьте свои комментарий, если Вы скачали Нулевой фокус через торрент бесплатно! Внесите свою лепту в развитие PiratBit!
    Комментировать посты могут только пользователи прошедшие не сложную регистрацию
    Показать сообщения:    

    Нулевой фокус через торрент
    Скачать бесплатно Нулевой фокус
    Нулевой фокус скачать торрент
    Нулевой фокус смотреть онлайн
    Cкачать фильм Нулевой фокус бесплатно
    Нулевой фокус скачать торрент в хорошем качестве
    Нулевой фокус смотреть онлайн бесплатно в хорошем качестве


    Вы не можете начинать темы
    Вы не можете отвечать на сообщения
    Вы не можете редактировать свои сообщения
    Вы не можете удалять свои сообщения
    Вы не можете голосовать в опросах
    Вы не можете прикреплять файлы к сообщениям
    Вы можете скачивать файлы