Ссылка на приватное зеркало нашего сайта всего за 1$. Внимание количество ограничено!!!

2 сезон

iTunes

1 сезон

1

iTunes

iTunes

iTunes

1 сезон

RePack

30

ИГРА 18+

pack

ВАЖНО

!!Акция!!

Alien_RageХит недели

RePack

MK11
pack

Забери бонус

RePack

jed

!!Акция!!

Alien_Rage

RePack

fifa19

RePack

Assassins Creed: Odyssey

RePack

NEED FOR SPEED™ PAYBACK

4 сезон

9 сезон

Бесстыжие 9 сезон

Все сериалы

все сериалы на PB.wtf

RePack

FAR CRY 5
  

Окончательный приговор / Серии: 1-4 из 4 (Дмитрий Аверин) [2019, Детектив, WEB-DLRip] pb.wtf

Окончательный приговор через торрент pb.wtf

Размер: 2.21 GB | Добавлен: 1 год 6 мес. назад | Торрент скачан:58 раз
Скачать  

08-04-2019 05:09 Окончательный приговор Скачать торрент  

Окончательный приговор Год выпуска: 2019
Страна: Россия
Жанр: Детектив
Продолжительность: ~ 00:48:00
Субтитры: отсутствуют

Режиссер: Дмитрий Аверин



В ролях:

Татьяна Колганова, Илья Шакунов, Александр Кудренко, Елизавета Аистова, Константин Воробьёв, Артур Ваха, Екатерина Старателева

Описание:

Лидия — судья. Каждый день она выносит приговоры, среди которых немало обвинительных. Лидия уверена, что судит справедливо, и ей не в чем себя упрекнуть. Но однажды ее дочь похищают. Похититель не хочет денег. Он требует, чтобы Лидия вспомнила человека, которого несправедливо осудила, и вернула дело на пересмотр. В противном случае ее дочь навсегда останется в заточении. Теперь у Лидии двойная задача: найти доказательства невиновности осужденной ею девушки и разыскать свою дочь. Она подозревает, что эти дела могут быть связаны, и в них замешаны самые близкие ей люди.

Качество: WEB-DLRip
Формат: AVI

Видео: XviD, ~ 1 563 Кбит/с, 720x400, 25 кадр/с
Аудио: 48 kHz, AC3, 2 ch, 192 kbps avg
скриншот  скриншот  скриншот  скриншот  

Общее
Полное имя : D:\Окончательный приговор.2019.WEB-DLRip. Files-x\01. Окончательный приговор.2019.WEB-DLRip. Files-x..avi
Формат : AVI
Формат/Информация : Audio Video Interleave
Размер файла : 562 Мбайт
Продолжительность : 43 м. 36 с.
Общий поток : 1802 Кбит/сек
Программа кодирования : VirtualDubMod 1.5.10.3 | www.virtualdub-fr.org || (build 2550/release)
Библиотека кодирования : VirtualDubMod build 2550/release

Видео
Идентификатор : 0
Формат : MPEG-4 Visual
Профиль формата : Advanced Simple@L5
Параметр BVOP формата : 1
Параметр QPel формата : Нет
Параметр GMC формата : Без точки перехода
Параметр матрицы формата : Выборочная
Идентификатор кодека : XVID
Идентификатор кодека/Подсказка : XviD
Продолжительность : 43 м. 36 с.
Битрейт : 1600 Кбит/сек
Ширина : 720 пикселей
Высота : 400 пикселей
Соотношение сторон : 16:9
Частота кадров : 25,000 кадров/сек
Цветовое пространство : YUV
Субдискретизация насыщенности : 4:2:0
Битовая глубина : 8 бит
Тип развёртки : Прогрессивная
Метод сжатия : С потерями
Бит/(Пиксели*Кадры) : 0.222
Размер потока : 499 Мбайт (89%)
Библиотека кодирования : XviD 73

Аудио
Идентификатор : 1
Формат : AC-3
Формат/Информация : Audio Coding 3
Расширение режима : CM (complete main)
Параметр Endianness формата : Big
Идентификатор кодека : 2000
Продолжительность : 43 м. 36 с.
Вид битрейта : Постоянный
Битрейт : 192 Кбит/сек
Каналы : 2 канала
Расположение каналов : Front: L R
Частота : 48,0 КГц
Частота кадров : 31,250 кадров/сек (1536 spf)
Метод сжатия : С потерями
Размер потока : 59,9 Мбайт (11%)
Выравнивание : Разделение по промежуткам
Продолжительность промежутка : 40 мс. (1,00 видеокадр)
Время предзагрузки промежутка : 500 мс.

pb.wtf



Скачать Окончательный приговор через торрент https://i110.fastpic.ru/big/2019/0406/49/3e502c39249fb4aaeb1a66c9e43f0c49.jpg Скачать фильм Окончательный приговор через торрент бесплантно в хорошем качестве Описание: Лидия — судья. Каждый день она выносит приговоры, среди которых немало обвинительных. Лидия уверена, что судит справедливо, и ей ... 10 10 3
Торрент: Зарегистрирован [2019-04-08 05:09] · скачан: 58 раз
Статус: √ проверено
Размер: 2.21 GB
Как cкачать? Как скачать Окончательный приговор через торрент | qTorrent

% Раздел Тема Автор DL S | L
Наши сериалы [ 6.57 GB ] Окончательный приговор / Серии: 1-4 из 4 [2019 WEB-DL 1080p] bober100 Скачать
1 | 0
Наши сериалы [ 2.34 GB ] Окончательный приговор / Серии: 1-4 из 4 [2019 SATRip] bober100 Скачать
1 | 0
Наши сериалы [ 2.17 GB ] Окончательный приговор / Серии: 1-4 из 4 [2019 SATRip-AVC] aleksan55 Скачать
1 | 0

28-11-2019 20:33  

Отключить всю рекламу на сайте

    Дорогой пользователь! Огромная просьба, поблагодарите релизера, оцените раздачу и оставьте свои комментарий, если Вы скачали Окончательный приговор через торрент бесплатно! Внесите свою лепту в развитие PiratBit!
    Комментировать посты могут только пользователи прошедшие не сложную регистрацию
    Показать сообщения:    

    Окончательный приговор через торрент
    Скачать бесплатно Окончательный приговор
    Окончательный приговор скачать торрент
    Окончательный приговор смотреть онлайн
    Cкачать фильм Окончательный приговор бесплатно
    Окончательный приговор скачать торрент в хорошем качестве
    Окончательный приговор смотреть онлайн бесплатно в хорошем качестве


    Вы не можете начинать темы
    Вы не можете отвечать на сообщения
    Вы не можете редактировать свои сообщения
    Вы не можете удалять свои сообщения
    Вы не можете голосовать в опросах
    Вы не можете прикреплять файлы к сообщениям
    Вы можете скачивать файлы