2 сезон

iTunes

MVO

1

2 сезон

iTunes

iTunes

1 сезон

RePack

30

Новинка

ВАЖНО

ИГРА 18+

pack

RePack

MK11
pack

Легкие деньги

RePack

jed

RePack

fifa19

RePack

RDR2

RePack

NEED FOR SPEED™ PAYBACK

4 сезон

9 сезон

Бесстыжие 9 сезон

Все сериалы

все сериалы на PB.wtf

RePack

FAR CRY 5

Anonymous, доброе утро, мы не успеваем собрать деньги на оплату серверов за декабрь и январь, помогите нам пожалуйста в это трудное время. В качестве благодарности мы отключим Вам всю рекламу на сайте (укажите свой ник в строку Ваше имя)!

×
  
Magnet ссылка

Хроники хищных городов в 3D / Mortal Engines i 3D (Кристиан Риверс) [2018 г., фантастика, фэнтези, боевик, триллер, приключения, BDRip 1080p, Дубляж iTunes] Анаглиф (Дюбуа) pb.wtf

Хроники хищных городов в 3D через торрент pb.wtf

Размер: 6.63 GB | Добавлен: 1 год 9 мес. назад | Торрент скачан:14 раз
Скачать  

08-04-2019 10:54 Хроники хищных городов в 3D Скачать торрент  

Хроники хищных городов в 3D / Mortal Engines i 3D
Год выпуска: 2018
Страна: Новая Зеландия, США
Жанр: фантастика, фэнтези, боевик, триллер, приключения
Продолжительность: 02:08:21
Перевод: Дубляж iTunes
Субтитры: Русские, украинские, английские

Режиссер: Кристиан Риверс

Бюджет: $100 000 000
Премьера в мире: 5 декабря 2018 (6 декабря 2018)

rating

В ролях: Гера Хилмарсдоттир, Роберт Шиэн, Хьюго Уивинг, Джихе, Ронан Рафтери, Лейла Джордж, Патрик Мэлахайд, Стивен Лэнг, Колин Сэлмон, Марк Митчинсон, Меник Гунератне, Реге Пейдж, Фрэнки Адамс, Лейфур Сигурдарсон, Кан Уэст, Эндрю Лииз, Ки Чан, Сара Пирс, Марк Хэдлоу, Карен Писториус, Поппи Маклеод, Джоэл Тобек, Йосон Ан

Описание: Прошли тысячелетия после того, как мир настиг апокалипсис. Человечество адаптировалось и теперь живет по новым правилам. Гигантские движущиеся мегаполисы рассекают пустоши и поглощают маленькие города ради ресурсов. Том Нэтсуорти из нижнего уровня великого Лондона оказывается в смертельной опасности, когда на его пути появляется скрывающаяся от закона бунтарка Эстер Шоу. Они не должны были встретиться, но им суждено изменить будущее.

Доп. информация: Формат 3D: Анаглиф (Дюбуа)



Качество: BDRip 1080p
Формат: MKV
Видео кодек: H.264
Аудио кодек: AC3
Видео: x264, 1920 x 1080 (16:9), 6368 kbps, 23,976 fps, ( 0.128 bpp)
Аудио#1: Русский / AC3 / 48 KHz / 5.1 ch / 384 Kbps (Дубляж - iTunes)
Аудио#2: Украинский / AC3 / 48 KHz / 2 ch / 192 Kbps (Дубляж - Line)
Аудио#3: Английский / AC3 / 48 KHz / 5.1 ch / 448 Kbps (Original - BD 3D)


скриншот   скриншот   скриншот   скриншот   скриншот  
Общее
Уникальный идентификатор : 170177483405232536380953865632200117226 (0x8006FDB9B770F38F89D8E3E9622DCBEA)
Полное имя : E:\MortalEngines(2018)3D(Anaglyph_Dubois)iTunes.mkv
Формат : Matroska
Версия формата : Version 4
Размер файла : 6,63 Гбайт
Продолжительность : 2 ч. 8 м.
Общий поток : 7395 Кбит/сек
Название фильма : Хроники хищных городов / Mortal Engines (2018) in 3D (Anaglyph_Dubois)
Дата кодирования : UTC 2019-04-05 16:07:22
Программа кодирования : mkvmerge v12.0.0 ('Trust / Lust') 64bit
Библиотека кодирования : libebml v1.3.4 + libmatroska v1.4.5

Видео
Идентификатор : 1
Формат : AVC
Формат/Информация : Advanced Video Codec
Профиль формата : High@L4.1
Настройки формата : CABAC / 4 Ref Frames
Параметр CABAC формата : Да
Параметр RefFrames формата : 4 кадра
Идентификатор кодека : V_MPEG4/ISO/AVC
Продолжительность : 2 ч. 8 м.
Битрейт : 6368 Кбит/сек
Ширина : 1920 пикселей
Высота : 1080 пикселей
Соотношение сторон : 16:9
Режим частоты кадров : Постоянный
Частота кадров : 23,976 кадра/сек
Цветовое пространство : YUV
Субдискретизация насыщенности : 4:2:0
Битовая глубина : 8 бит
Тип развёртки : Прогрессивная
Бит/(Пиксели*Кадры) : 0.128
Размер потока : 5,71 Гбайт (86%)
Заголовок : slaventi-69 ( R.G. HD-Films ) 3Д (Anaglyph_Dubois)
Библиотека кодирования : x264 core 130 r2273 b3065e6
Настройки программы : cabac=1 / ref=4 / deblock=1:-2:-2 / analyse=0x3:0x113 / me=umh / subme=9 / psy=1 / psy_rd=1.00:0.00 / mixed_ref=1 / me_range=24 / chroma_me=1 / trellis=2 / 8x8dct=1 / cqm=0 / deadzone=21,11 / fast_pskip=1 / chroma_qp_offset=-2 / threads=8 / lookahead_threads=3 / sliced_threads=0 / nr=0 / decimate=1 / interlaced=0 / bluray_compat=0 / constrained_intra=0 / bframes=5 / b_pyramid=2 / b_adapt=2 / b_bias=0 / direct=2 / weightb=1 / open_gop=0 / weightp=2 / keyint=250 / keyint_min=23 / scenecut=40 / intra_refresh=0 / rc_lookahead=40 / rc=crf / mbtree=1 / crf=17.5 / qcomp=0.60 / qpmin=0 / qpmax=69 / qpstep=4 / ip_ratio=1.40 / aq=1:1.00
Язык : English
Default : Да
Forced : Нет

Аудио #1
Идентификатор : 2
Формат : AC-3
Формат/Информация : Audio Coding 3
Коммерческое название : Dolby Digital
Идентификатор кодека : A_AC3
Продолжительность : 2 ч. 8 м.
Вид битрейта : Постоянный
Битрейт : 384 Кбит/сек
Каналы : 6 каналов
Channel layout : L R C LFE Ls Rs
Частота : 48,0 КГц
Частота кадров : 31,250 кадров/сек (1536 SPF)
Битовая глубина : 16 бит
Метод сжатия : С потерями
Размер потока : 352 Мбайт (5%)
Заголовок : Дубляж (iTunes)
Язык : Russian
ServiceKind/String : Complete Main
Default : Да
Forced : Нет

Аудио #2
Идентификатор : 3
Формат : AC-3
Формат/Информация : Audio Coding 3
Коммерческое название : Dolby Digital
Идентификатор кодека : A_AC3
Продолжительность : 2 ч. 8 м.
Вид битрейта : Постоянный
Битрейт : 192 Кбит/сек
Каналы : 2 канала
Channel layout : L R
Частота : 48,0 КГц
Частота кадров : 31,250 кадров/сек (1536 SPF)
Битовая глубина : 16 бит
Метод сжатия : С потерями
Размер потока : 176 Мбайт (3%)
Заголовок : Дубляж (Line)
Язык : Ukrainian
ServiceKind/String : Complete Main
Default : Нет
Forced : Нет

Аудио #3
Идентификатор : 4
Формат : AC-3
Формат/Информация : Audio Coding 3
Коммерческое название : Dolby Digital
Идентификатор кодека : A_AC3
Продолжительность : 2 ч. 8 м.
Вид битрейта : Постоянный
Битрейт : 448 Кбит/сек
Каналы : 6 каналов
Channel layout : L R C LFE Ls Rs
Частота : 48,0 КГц
Частота кадров : 31,250 кадров/сек (1536 SPF)
Битовая глубина : 16 бит
Метод сжатия : С потерями
Размер потока : 411 Мбайт (6%)
Заголовок : Original
Язык : English
ServiceKind/String : Complete Main
Default : Нет
Forced : Нет

Текст #1
Идентификатор : 5
Формат : UTF-8
Идентификатор кодека : S_TEXT/UTF8
Идентификатор кодека/Информация : UTF-8 Plain Text
Продолжительность : 1 ч. 43 м.
Битрейт : 1 бит/сек
ElementCount : 17
Размер потока : 780 байт (0%)
Заголовок : Форсированные
Язык : Russian
Default : Да
Forced : Нет

Текст #2
Идентификатор : 6
Формат : UTF-8
Идентификатор кодека : S_TEXT/UTF8
Идентификатор кодека/Информация : UTF-8 Plain Text
Продолжительность : 1 ч. 57 м.
Битрейт : 74 бит/сек
ElementCount : 1332
Размер потока : 63,8 Кбайт (0%)
Заголовок : Полные
Язык : Russian
Default : Нет
Forced : Нет

Текст #3
Идентификатор : 7
Формат : UTF-8
Идентификатор кодека : S_TEXT/UTF8
Идентификатор кодека/Информация : UTF-8 Plain Text
Продолжительность : 1 ч. 43 м.
Битрейт : 0 бит/сек
ElementCount : 16
Размер потока : 719 байт (0%)
Заголовок : Форсированные
Язык : Ukrainian
Default : Нет
Forced : Нет

Текст #4
Идентификатор : 8
Формат : UTF-8
Идентификатор кодека : S_TEXT/UTF8
Идентификатор кодека/Информация : UTF-8 Plain Text
Продолжительность : 25 м. 11 с.
Битрейт : 0 бит/сек
ElementCount : 6
Размер потока : 172 байт (0%)
Заголовок : Forced
Язык : English
Default : Нет
Forced : Нет

Текст #5
Идентификатор : 9
Формат : UTF-8
Идентификатор кодека : S_TEXT/UTF8
Идентификатор кодека/Информация : UTF-8 Plain Text
Продолжительность : 1 ч. 57 м.
Битрейт : 38 бит/сек
ElementCount : 1074
Размер потока : 33,0 Кбайт (0%)
Заголовок : Full
Язык : English
Default : Нет
Forced : Нет

Текст #6
Идентификатор : 10
Формат : UTF-8
Идентификатор кодека : S_TEXT/UTF8
Идентификатор кодека/Информация : UTF-8 Plain Text
Продолжительность : 1 ч. 57 м.
Битрейт : 47 бит/сек
ElementCount : 1502
Размер потока : 40,8 Кбайт (0%)
Заголовок : SDH (BD 3D)
Язык : English
Default : Нет
Forced : Нет

Меню
00:00:00.000 : :1
00:09:24.397 : :2
00:16:13.304 : :3
00:24:20.625 : :4
00:31:24.590 : :5
00:35:53.067 : :6
00:41:27.818 : :7
00:44:53.815 : :8
00:50:16.804 : :9
00:54:21.173 : :10
01:00:51.396 : :11
01:07:12.068 : :12
01:11:12.850 : :13
01:17:37.735 : :14
01:25:25.619 : :15
01:33:30.395 : :16
01:39:28.545 : :17
01:47:58.262 : :18
01:52:11.557 : :19
01:58:33.523 : :20

pb.wtf



Скачать Хроники хищных городов в 3D через торрент https://c.radikal.ru/c37/1904/ab/2f50c2bcf3e7.png Скачать фильм Хроники хищных городов в 3D через торрент бесплантно в хорошем качестве Описание: Прошли тысячелетия после того, как мир настиг апокалипсис. Человечество адаптировалось и теперь живет по новым правилам. ... 10 10 2
Торрент: Зарегистрирован [2019-04-08 10:54] · скачан: 14 раз
Статус: √ проверено
Размер: 6.63 GB
Как cкачать? Как скачать Хроники хищных городов в 3D через торрент | UTorrent

28-11-2019 20:33  

Отключить всю рекламу на сайте

    Дорогой пользователь! Огромная просьба, поблагодарите релизера, оцените раздачу и оставьте свои комментарий, если Вы скачали Хроники хищных городов в 3D через торрент бесплатно! Внесите свою лепту в развитие PiratBit!
    Комментировать посты могут только пользователи прошедшие не сложную регистрацию
    Показать сообщения:    

    Хроники хищных городов в 3D через торрент
    Скачать бесплатно Хроники хищных городов в 3D
    Хроники хищных городов в 3D скачать торрент
    Хроники хищных городов в 3D смотреть онлайн
    Cкачать фильм Хроники хищных городов в 3D бесплатно
    Хроники хищных городов в 3D скачать торрент в хорошем качестве
    Хроники хищных городов в 3D смотреть онлайн бесплатно в хорошем качестве


    Вы не можете начинать темы
    Вы не можете отвечать на сообщения
    Вы не можете редактировать свои сообщения
    Вы не можете удалять свои сообщения
    Вы не можете голосовать в опросах
    Вы не можете прикреплять файлы к сообщениям
    Вы можете скачивать файлы