Ссылка на приватное зеркало всего за 1$. Внимание количество ограничено!!!

OK

1+1

iTunes

мы

OK

1

WEB-DLRip

Джокер

Пифагор

Ведьмак / The Witcher сериал

Лицензия

ПШазам

ОК

Оно 2

iTunes

30
pack

Вам бонус

ВАЖНО

!!Акция!!

Alien_RageХит недели

RePack

Resident Evil 21

ИГРА 18+

pack

RePack

jed

!!Акция!!

Alien_Rage

RePack

fifa19

RePack

Assassins Creed: Odyssey

RePack

NEED FOR SPEED™ PAYBACK

4 сезон

9 сезон

Бесстыжие 9 сезон

Все сериалы

все сериалы на PB.wtf

RePack

FAR CRY 5
  

Хроники хищных городов / Mortal Engines (Кристиан Риверс) [2018 г., фантастика, фэнтези, боевик, триллер, приключения, BDRip 720p / 60 FPS, Дубляж iTunes] 60fps от R.G. HD-Films pb.wtf

Хроники хищных городов через торрент pb.wtf

Раздают: 3 [ 0 KB/s ]
Размер: 3.47 GB | Добавлен: 9 мес. назад | Торрент скачан:172 раза
Скачать  

08-04-2019 12:04 Хроники хищных городов Скачать торрент  

Хроники хищных городов / Mortal Engines
Год выпуска: 2018
Страна: Новая Зеландия, США
Жанр: фантастика, фэнтези, боевик, триллер, приключения
Продолжительность: 02:08:21
Перевод: Дубляж iTunes

Режиссер: Кристиан Риверс

Бюджет: $100 000 000
Премьера в мире: 5 декабря 2018 (6 декабря 2018)

rating

В ролях: Гера Хилмарсдоттир, Роберт Шиэн, Хьюго Уивинг, Джихе, Ронан Рафтери, Лейла Джордж, Патрик Мэлахайд, Стивен Лэнг, Колин Сэлмон, Марк Митчинсон, Меник Гунератне, Реге Пейдж, Фрэнки Адамс, Лейфур Сигурдарсон, Кан Уэст, Эндрю Лииз, Ки Чан, Сара Пирс, Марк Хэдлоу, Карен Писториус, Поппи Маклеод, Джоэл Тобек, Йосон Ан

Описание: Прошли тысячелетия после того, как мир настиг апокалипсис. Человечество адаптировалось и теперь живет по новым правилам. Гигантские движущиеся мегаполисы рассекают пустоши и поглощают маленькие города ради ресурсов. Том Нэтсуорти из нижнего уровня великого Лондона оказывается в смертельной опасности, когда на его пути появляется скрывающаяся от закона бунтарка Эстер Шоу. Они не должны были встретиться, но им суждено изменить будущее.

Качество: BDRip 720p / 60 FPS
Формат: MKV
Видео кодек: H.264
Аудио кодек: AC3
Видео: x264, 1280 x 536 ( 2,40:1 ), 3486 kbps, 60,000 fps, ( 0.085 bpp)
Аудио#1: Русский / AC3 / 48 KHz / 5.1 ch / 384 Kbps (Дубляж - iTunes)


скриншот   скриншот   скриншот   скриншот   скриншот   Просьба к переливающим на другие сайты, в оформлении указывайте пожалуйста авторство группы R.G. HD-Films
x264 [info]: profile High, level 4.1
x264 [info]: frame I:3262 Avg QP:14.43 size: 68996 PSNR Mean Y:51.03 U:57.05 V:56.63 Avg:52.01 Global:51.43
x264 [info]: frame P:102077 Avg QP:17.69 size: 15871 PSNR Mean Y:47.88 U:55.54 V:54.72 Avg:48.92 Global:48.18
x264 [info]: frame B:356264 Avg QP:21.98 size: 4230 PSNR Mean Y:46.74 U:55.79 V:54.88 Avg:47.87 Global:46.69
x264 [info]: consecutive B-frames: 1.8% 1.6% 6.0% 11.1% 66.8% 12.8%


Общее
Уникальный идентификатор : 207352144494692434650243470400737772058 (0x9BFE92067D5797DBA4FB7FF77074021A)
Полное имя : E:\Mortal.Engines.(2018).BDRip.720p.(60 Fps).mkv
Формат : Matroska
Версия формата : Version 4
Размер файла : 3,47 Гбайт
Продолжительность : 2 ч. 8 м.
Общий поток : 3873 Кбит/сек
Название фильма : Хроники хищных городов / Mortal Engines (2018) BDRip 720p (60 Fps)
Дата кодирования : UTC 2019-04-08 11:18:47
Программа кодирования : mkvmerge v12.0.0 ('Trust / Lust') 64bit
Библиотека кодирования : libebml v1.3.4 + libmatroska v1.4.5

Видео
Идентификатор : 1
Формат : AVC
Формат/Информация : Advanced Video Codec
Профиль формата : High@L4.1
Настройки формата : CABAC / 8 Ref Frames
Параметр CABAC формата : Да
Параметр RefFrames формата : 8 кадров
Идентификатор кодека : V_MPEG4/ISO/AVC
Продолжительность : 2 ч. 8 м.
Битрейт : 3486 Кбит/сек
Ширина : 1280 пикселей
Высота : 536 пикселей
Соотношение сторон : 2,40:1
Режим частоты кадров : Постоянный
Частота кадров : 60,000 кадров/сек
Цветовое пространство : YUV
Субдискретизация насыщенности : 4:2:0
Битовая глубина : 8 бит
Тип развёртки : Прогрессивная
Бит/(Пиксели*Кадры) : 0.085
Размер потока : 3,12 Гбайт (90%)
Заголовок : slaventi-69 ( R.G. HD-Films | 60 fps )
Библиотека кодирования : x264 core 130 r2273 b3065e6
Настройки программы : cabac=1 / ref=8 / deblock=1:-2:-2 / analyse=0x3:0x113 / me=umh / subme=9 / psy=1 / psy_rd=1.00:0.00 / mixed_ref=1 / me_range=24 / chroma_me=1 / trellis=2 / 8x8dct=1 / cqm=0 / deadzone=21,11 / fast_pskip=1 / chroma_qp_offset=-2 / threads=8 / lookahead_threads=3 / sliced_threads=0 / nr=0 / decimate=1 / interlaced=0 / bluray_compat=0 / constrained_intra=0 / bframes=5 / b_pyramid=2 / b_adapt=2 / b_bias=0 / direct=2 / weightb=1 / open_gop=0 / weightp=2 / keyint=250 / keyint_min=25 / scenecut=40 / intra_refresh=0 / rc_lookahead=40 / rc=crf / mbtree=1 / crf=16.5 / qcomp=0.60 / qpmin=0 / qpmax=69 / qpstep=4 / ip_ratio=1.40 / aq=1:1.00
Язык : English
Default : Да
Forced : Нет

Аудио
Идентификатор : 2
Формат : AC-3
Формат/Информация : Audio Coding 3
Коммерческое название : Dolby Digital
Идентификатор кодека : A_AC3
Продолжительность : 2 ч. 8 м.
Вид битрейта : Постоянный
Битрейт : 384 Кбит/сек
Каналы : 6 каналов
Channel layout : L R C LFE Ls Rs
Частота : 48,0 КГц
Частота кадров : 31,250 кадров/сек (1536 SPF)
Битовая глубина : 16 бит
Метод сжатия : С потерями
Размер потока : 352 Мбайт (10%)
Заголовок : Дубляж (iTunes)
Язык : Russian
ServiceKind/String : Complete Main
Default : Да
Forced : Нет

Автор рипа: slaventi-69 pb.wtf



Скачать Хроники хищных городов через торрент https://c.radikal.ru/c37/1904/ab/2f50c2bcf3e7.png Скачать фильм Хроники хищных городов через торрент бесплантно в хорошем качестве Описание: Прошли тысячелетия после того, как мир настиг апокалипсис. Человечество адаптировалось и теперь живет по новым правилам. ... 9.3 10 6
Торрент: Зарегистрирован [2019-04-08 12:04] · скачан: 172 раз
Статус: √ проверено
Размер: 3.47 GB
Как cкачать? Как скачать Хроники хищных городов через торрент | qTorrent

28-11-2019 20:33  

Отключить всю рекламу на сайте

    Дорогой пользователь! Огромная просьба, поблагодарите релизера, оцените раздачу и оставьте свои комментарий, если Вы скачали Хроники хищных городов через торрент бесплатно! Внесите свою лепту в развитие PiratBit!
    Комментировать посты могут только пользователи прошедшие не сложную регистрацию
    Показать сообщения:    

    Хроники хищных городов через торрент
    Скачать бесплатно Хроники хищных городов
    Хроники хищных городов скачать торрент
    Хроники хищных городов смотреть онлайн
    Cкачать фильм Хроники хищных городов бесплатно
    Хроники хищных городов скачать торрент в хорошем качестве
    Хроники хищных городов смотреть онлайн бесплатно в хорошем качестве


    Вы не можете начинать темы
    Вы не можете отвечать на сообщения
    Вы не можете редактировать свои сообщения
    Вы не можете удалять свои сообщения
    Вы не можете голосовать в опросах
    Вы не можете прикреплять файлы к сообщениям
    Вы можете скачивать файлы