Ссылка на приватное зеркало нашего сайта всего за 1$. Внимание количество ограничено!!!

2 сезон

iTunes

1 сезон

1

iTunes

iTunes

iTunes

1 сезон

RePack

30

ИГРА 18+

pack

ВАЖНО

!!Акция!!

Alien_RageХит недели

RePack

MK11
pack

Забери бонус

RePack

jed

!!Акция!!

Alien_Rage

RePack

fifa19

RePack

Assassins Creed: Odyssey

RePack

NEED FOR SPEED™ PAYBACK

4 сезон

9 сезон

Бесстыжие 9 сезон

Все сериалы

все сериалы на PB.wtf

RePack

FAR CRY 5
  

Поселенцы / Сезон: 1 / Серии: 1-16 из 16 (Артём Мазунов) [2019, Детектив, драма, SATRip] pb.wtf

Поселенцы через торрент pb.wtf

Размер: 9.38 GB | Добавлен: 1 год 6 мес. назад | Торрент скачан:159 раз
Скачать  

08-04-2019 12:10 Поселенцы Скачать торрент  

Поселенцы Год выпуска: 2019
Страна: Россия
Жанр: Детектив, драма
Продолжительность: ~ 00:50:00 серия
Субтитры: отсутствуют

Режиссер: Артём Мазунов



В ролях:

Алексей Морозов, Сергей Комаров (II), Лукерья Ильяшенко, Владимир Юматов, Александр Тютин, Екатерина Соломатина, Никита Абдулов, Александр Хованский (II), Александра Прокофьева, Константин Балакирев

Описание:

Иван Корнилов – бывший спецназовец, руководитель силового подразделения службы исполнения наказаний. После конфликта с руководством и болезненного разрыва отношений с любимой женщиной, принимает решение изменить свою жизнь и уехать из Москвы. В этот момент Корнилов узнаёт, что в колонии-поселении есть вакантное место, и устраивается туда оперативником. Начальник колонии Григорьев Василий Иванович (Александр Тютин) искренне рад появлению талантливого, энергичного оперативника. Здесь, в колонии отбывают срок наказания лица из совершенно разных социальных слоёв, уровня и уклада жизни, а так же среди осужденных есть те, кого незаконно обвинили. За любовь и внимание красавца опера начинается борьба одиноких женщин – сотрудниц колонии-поселения, но Корнилова не отпускают воспоминания о Елене, которая ушла от него. Сердце Ивана глухо к чувствам до тех пор, пока при расследовании одного из преступлений, он неожиданно не сближается с заключенной Любовью (Лукерья Ильяшенко). Бывшая актриса по роковой случайности стала свидетельницей, произошедшего на территории колонии.

Качество: SATRip
Формат: AVI

Видео: XviD, ~ 1560 Кбит/с, 704x272
Аудио: MP3, 2 ch, 192 Кбит/с
скриншот  скриншот  скриншот  скриншот  

Общее
Полное имя : D:\Poselency.2019.XviD.SATRip.25Kuzmich\Poselency.e01.XviD.SATRip.25Kuzmich.avi
Формат : AVI
Формат/Информация : Audio Video Interleave
Размер файла : 600 Мбайт
Продолжительность : 47 м. 35 с.
Общий поток : 1763 Кбит/сек
Программа кодирования : VirtualDubMod 1.5.10.3 | www.virtualdub-fr.org || (build 2550/release)
Библиотека кодирования : VirtualDubMod build 2550/release

Видео
Идентификатор : 0
Формат : MPEG-4 Visual
Профиль формата : Advanced Simple@L5
Параметр BVOP формата : 1
Параметр QPel формата : Нет
Параметр GMC формата : Без точки перехода
Параметр матрицы формата : Default (MPEG)
Идентификатор кодека : XVID
Идентификатор кодека/Подсказка : XviD
Продолжительность : 47 м. 35 с.
Битрейт : 1561 Кбит/сек
Ширина : 704 пикселя
Высота : 272 пикселя
Соотношение сторон : 2,588
Частота кадров : 25,000 кадров/сек
Цветовое пространство : YUV
Субдискретизация насыщенности : 4:2:0
Битовая глубина : 8 бит
Тип развёртки : Прогрессивная
Метод сжатия : С потерями
Бит/(Пиксели*Кадры) : 0.326
Размер потока : 531 Мбайт (89%)
Библиотека кодирования : XviD 73

Аудио
Идентификатор : 1
Формат : MPEG Audio
Версия формата : Version 1
Профиль формата : Layer 3
Режим : Joint stereo
Идентификатор кодека : 55
Идентификатор кодека/Подсказка : MP3
Продолжительность : 47 м. 35 с.
Вид битрейта : Постоянный
Битрейт : 192 Кбит/сек
Каналы : 2 канала
Частота : 48,0 КГц
Метод сжатия : С потерями
Размер потока : 65,4 Мбайт (11%)
Выравнивание : Соединение по промежуткам
Продолжительность промежутка : 40 мс. (1,00 видеокадр)
Время предзагрузки промежутка : 504 мс.
Библиотека кодирования : LAME3.99r
Настройки программы : -m j -V 4 -q 2 -lowpass 18.6 -b 192

Внимание! Раздача ведётся путём добавления новых серий; при каждом добавлении создаётся новый торрент. Чтобы начать докачку новой серии, пользователям необходимо сделать следующее:
(1) остановить скачивание,
(2) удалить старый торрент у себя из клиента (старые серии удалять не надо),
(3) скачать новый торрент и запустить его у себя в клиенте вместо старого, при этом указать клиенту путь в старую папку куда и должно происходить скачивание новых серий.

Ваш клиент при этом должен произвести хеширование (проверку) старой папки (если не производит сам - помогите ему сделать это), и будет докачивать только те серии которых у вас ещё нет. Старые серии при этом не удаляются, а продолжают раздаваться!

Eсли вы уже удалили старые серии, то предотвратить повторную закачку старых серий можно, отжав галочку в соответсвующих местах при запуске нового торрента. По возможности, желательно не удалять старые серии как можно дольше чтобы релизёр не столько продолжал раздавать старые серии, а смог сконцентрироваться на новых.
pb.wtf



Скачать Поселенцы через торрент http://img14.lostpic.net/2019/04/08/f986494003d889a58bdbd8a8a916761d.jpg Скачать фильм Поселенцы через торрент бесплантно в хорошем качестве Описание: Иван Корнилов – бывший спецназовец, руководитель силового подразделения службы исполнения наказаний. После конфликта с ... 9.6 10 14
Торрент: Зарегистрирован [2019-04-13 07:23] · скачан: 159 раз
Статус: √ проверено
Размер: 9.38 GB
Как cкачать? Как скачать Поселенцы через торрент | qTorrent

% Раздел Тема Автор DL S | L
Наши сериалы [ 10.05 GB ] Поселенцы / Сезон: 1 / Серии: 1-16 из 16 [2019 WEB-DLRip] bober100 Скачать
1 | 0
Наши сериалы [ 20.61 GB ] Поселенцы / Сезон: 1 / Серии: 1-16 из 16 [2019 WEBRip 720p] bober100 Скачать
1 | 0
Наши сериалы [ 34.33 GB ] Поселенцы / Сезон: 1 / Серии: 1-16 из 16 [2019 WEB-DL 1080p] bober100 Скачать
1 | 0

28-11-2019 20:33  

Отключить всю рекламу на сайте

    Дорогой пользователь! Огромная просьба, поблагодарите релизера, оцените раздачу и оставьте свои комментарий, если Вы скачали Поселенцы через торрент бесплатно! Внесите свою лепту в развитие PiratBit!
    Комментировать посты могут только пользователи прошедшие не сложную регистрацию
    Показать сообщения:    

    Поселенцы через торрент
    Скачать бесплатно Поселенцы
    Поселенцы скачать торрент
    Поселенцы смотреть онлайн
    Cкачать фильм Поселенцы бесплатно
    Поселенцы скачать торрент в хорошем качестве
    Поселенцы смотреть онлайн бесплатно в хорошем качестве


    Вы не можете начинать темы
    Вы не можете отвечать на сообщения
    Вы не можете редактировать свои сообщения
    Вы не можете удалять свои сообщения
    Вы не можете голосовать в опросах
    Вы не можете прикреплять файлы к сообщениям
    Вы можете скачивать файлы