Ссылка на приватное зеркало нашего сайта всего за 1$. Внимание количество ограничено!!!

2 сезон

iTunes

1 сезон

1

iTunes

iTunes

iTunes

1 сезон

RePack

30

ИГРА 18+

pack

ВАЖНО

!!Акция!!

Alien_RageХит недели

RePack

MK11
pack

Забери бонус

RePack

jed

!!Акция!!

Alien_Rage

RePack

fifa19

RePack

Assassins Creed: Odyssey

RePack

NEED FOR SPEED™ PAYBACK

4 сезон

9 сезон

Бесстыжие 9 сезон

Все сериалы

все сериалы на PB.wtf

RePack

FAR CRY 5
  

Зорге / Сезон: 1 / Серии: 1-12 из 12 (Сергей Гинзбург) [2019, Биография, драма, шпионский фильм, SATRip] pb.wtf

Зорге через торрент pb.wtf

Размер: 7.03 GB | Добавлен: 1 год 6 мес. назад | Торрент скачан:133 раза
Скачать  

08-04-2019 12:17 Зорге Скачать торрент  

Зорге
Год выпуска: 2019
Страна: Россия, Китай, Украина
Жанр: Биография, драма, шпионский фильм
Продолжительность: ~ 00:50:00 серия
Субтитры: отсутствуют

Режиссер: Сергей Гинзбург



В ролях:

Александр Домогаров, Виктория Исакова, Сергей Гинзбург, Андрей Леонов, Юлия Ауг, Анатолий Дзиваев, Сергей Багиров, Василий Мищенко, Андрей Руденский, Кирилл Кузнецов, Анна Бачалова, Александр Никольский (II), Евгения Бордзиловская, Сергей Бызгу, Игорь Фурманюк, Роман Индык, Анатолий Котенёв, Александр Орав, Павел Капитонов, Александр Зуев, Иван Шибанов, Татьяна Космачёва, Анастасия Цой, Гэ Ян, Дин Фан, Джунсуке Киносита, Шион Накамару, Осаму Ямамото, Мария Ахметзянова, Юрий Лахин, Николай Юшкевич, Роман Хан

Описание:

Фильм о жизни и работе советского разведчика Рихарда Зорге в Японии накануне и во время второй мировой войны в Японии. Работая корреспондентом влиятельной немецкой газеты в Токио, он имел доступ к ценнейшей информации в кругах немецких дипломатов. Его блестящее умение общаться с людьми давало возможность получать секретную военную информацию.

Качество: SATRip
Формат: AVI

Видео: XviD, ~ 1550 Кбит/с, 720x400
Аудио: МР3, 2 ch, 192 Кбит/с
скриншот  скриншот  скриншот  скриншот  

Общее
Полное имя : D:\Zorge.2019.XviD.SATRip.25Kuzmich\Zorge.e01.XviD.SATRip.25Kuzmich.avi
Формат : AVI
Формат/Информация : Audio Video Interleave
Размер файла : 600 Мбайт
Продолжительность : 49 м. 43 с.
Общий поток : 1687 Кбит/сек
Программа кодирования : VirtualDubMod 1.5.10.3 | www.virtualdub-fr.org || (build 2550/release)
Библиотека кодирования : VirtualDubMod build 2550/release

Видео
Идентификатор : 0
Формат : MPEG-4 Visual
Профиль формата : Advanced Simple@L5
Параметр BVOP формата : 1
Параметр QPel формата : Нет
Параметр GMC формата : Без точки перехода
Параметр матрицы формата : Default (MPEG)
Идентификатор кодека : XVID
Идентификатор кодека/Подсказка : XviD
Продолжительность : 49 м. 43 с.
Битрейт : 1486 Кбит/сек
Ширина : 720 пикселей
Высота : 400 пикселей
Соотношение сторон : 16:9
Частота кадров : 25,000 кадров/сек
Цветовое пространство : YUV
Субдискретизация насыщенности : 4:2:0
Битовая глубина : 8 бит
Тип развёртки : Прогрессивная
Метод сжатия : С потерями
Бит/(Пиксели*Кадры) : 0.206
Размер потока : 528 Мбайт (88%)
Библиотека кодирования : XviD 73

Аудио
Идентификатор : 1
Формат : MPEG Audio
Версия формата : Version 1
Профиль формата : Layer 3
Режим : Joint stereo
Идентификатор кодека : 55
Идентификатор кодека/Подсказка : MP3
Продолжительность : 49 м. 43 с.
Вид битрейта : Постоянный
Битрейт : 192 Кбит/сек
Каналы : 2 канала
Частота : 48,0 КГц
Метод сжатия : С потерями
Размер потока : 68,3 Мбайт (11%)
Выравнивание : Соединение по промежуткам
Продолжительность промежутка : 40 мс. (1,00 видеокадр)
Время предзагрузки промежутка : 504 мс.
Библиотека кодирования : LAME3.99r
Настройки программы : -m j -V 4 -q 2 -lowpass 18.6 -b 192

Внимание! Раздача ведётся путём добавления новых серий; при каждом добавлении создаётся новый торрент. Чтобы начать докачку новой серии, пользователям необходимо сделать следующее:
(1) остановить скачивание,
(2) удалить старый торрент у себя из клиента (старые серии удалять не надо),
(3) скачать новый торрент и запустить его у себя в клиенте вместо старого, при этом указать клиенту путь в старую папку куда и должно происходить скачивание новых серий.

Ваш клиент при этом должен произвести хеширование (проверку) старой папки (если не производит сам - помогите ему сделать это), и будет докачивать только те серии которых у вас ещё нет. Старые серии при этом не удаляются, а продолжают раздаваться!

Eсли вы уже удалили старые серии, то предотвратить повторную закачку старых серий можно, отжав галочку в соответсвующих местах при запуске нового торрента. По возможности, желательно не удалять старые серии как можно дольше чтобы релизёр не столько продолжал раздавать старые серии, а смог сконцентрироваться на новых.
pb.wtf



Скачать Зорге через торрент http://img16.lostpic.net/2019/04/08/b98500d0104e0efc30165303909a44b7.jpg Скачать фильм Зорге через торрент бесплантно в хорошем качестве Описание: Фильм о жизни и работе советского разведчика Рихарда Зорге в Японии накануне и во время второй мировой войны в Японии. Работая ... 9.1 10 10
Торрент: Зарегистрирован [2019-04-18 17:16] · скачан: 133 раз
Статус: √ проверено
Размер: 7.03 GB
Как cкачать? Как скачать Зорге через торрент | qTorrent

% Раздел Тема Автор DL S | L
Наши сериалы [ 7.6 GB ] Зорге / Сезон: 1 / Серии: 1-12 из 12 [2019 Биография шпионский фильм WEB-DLRip] bober100 Скачать
1 | 0
Наши сериалы [ 22.37 GB ] Зорге / Сезон: 1 / Серии: 1-12 из 12 [2019 Биография шпионский фильм WEB-DL 1080p] bober100 Скачать
1 | 0
Наши сериалы [ 9.09 GB ] Зорге / Сезон: 1 / Серии: 1-12 из 12 [2019 Биография шпионский фильм HDTVRip-AVC] bober100 Скачать
1 | 0
Наши сериалы [ 15.3 GB ] Зорге / Сезон: 1 / Серии: 1-12 из 12 [2019 Биография шпионский фильм HDTVRip 720p] bober100 Скачать
1 | 0
Наши сериалы [ 8.23 GB ] Зорге / Сезон: 1 / Серии: 1-12 из 12 [2019 Биография шпионский фильм HDTVRip] bober100 Скачать
1 | 0
Наши сериалы [ 27.12 GB ] Зорге / Сезон: 1 / Серии: 1-12 из 12 [2019 Биография шпионский фильм HDTV 1080i] bober100 Скачать
1 | 0

28-11-2019 20:33  

Отключить всю рекламу на сайте

    Дорогой пользователь! Огромная просьба, поблагодарите релизера, оцените раздачу и оставьте свои комментарий, если Вы скачали Зорге через торрент бесплатно! Внесите свою лепту в развитие PiratBit!
    Комментировать посты могут только пользователи прошедшие не сложную регистрацию
    Показать сообщения:    

    Зорге через торрент
    Скачать бесплатно Зорге
    Зорге скачать торрент
    Зорге смотреть онлайн
    Cкачать фильм Зорге бесплатно
    Зорге скачать торрент в хорошем качестве
    Зорге смотреть онлайн бесплатно в хорошем качестве


    Вы не можете начинать темы
    Вы не можете отвечать на сообщения
    Вы не можете редактировать свои сообщения
    Вы не можете удалять свои сообщения
    Вы не можете голосовать в опросах
    Вы не можете прикреплять файлы к сообщениям
    Вы можете скачивать файлы