Ссылка на приватное зеркало всего за 1$. Внимание количество ограничено!!!

OK

1+1

iTunes

мы

OK

1

WEB-DLRip

Джокер

Пифагор

Ведьмак / The Witcher сериал

iTunes

ПШазам

ОК

Оно 2

iTunes

30
pack

Вам бонус

ВАЖНО

!!Акция!!

Alien_RageХит недели

RePack

Resident Evil 21

ИГРА 18+

pack

RePack

jed

RePack

fifa19

RePack

Assassins Creed: Odyssey

RePack

NEED FOR SPEED™ PAYBACK

4 сезон

9 сезон

Бесстыжие 9 сезон

Все сериалы

все сериалы на PB.wtf

RePack

FAR CRY 5
  

Вуаль / The Veil (Брент Райан Грин) [2017, фантастика, боевик, приключения, BDRip 720p] MVO [Официальный звук] pb.wtf

Вуаль через торрент pb.wtf

Размер: 4.23 GB | Добавлен: 9 мес. назад | Торрент скачан:42 раза
Скачать  

08-04-2019 13:08 Вуаль Скачать торрент  

Вуаль / The Veil Год выпуска: 2017
Страна: США
Жанр: фантастика, боевик, приключения
Продолжительность: 01:26:22
Перевод: Профессиональный (многоголосый) | Официальный звук
Субтитры: отсутствуют

Режиссер: Брент Райан Грин

rating

В ролях:

Серинда Свон, Уильям Моусли, Уильям Леви, Ник Е. Тарабэй, Адам Грегори, Эйприл Бринсон, Оуэн Джойнер, Александра Харрис, Надя Команечи, Виолет Бринсон

Описание:

На земле, раздираемой кровавыми баталиями, появляется великий воин. После предательства своих же людей он находит спасение в угнетённом племени. Новые соратники верят, что перед ними - Избранный, которому уготована решающая битва за их свободу.

Качество: BDRip 720p
Формат: MKV

Видео: h.264,6 557 kb/s, 1280x536
Аудио: Русский (AC3, 2 ch, 448 Кбит/с)
скриншот  скриншот  скриншот  

Общее
Уникальный идентификатор : 182343251166875249666455732153376364336 (0x892E0862D2B67286B69B56F81980D730)
Полное имя : D:\The.Veil.2017.Pof.BDRip.72Op.mkv
Формат : Matroska
Версия формата : Version 2
Размер файла : 4,23 Гбайт
Продолжительность : 1 ч. 26 м.
Режим общего битрейта : Переменный
Общий поток : 7007 Кбит/сек
Дата кодирования : UTC 2019-04-08 08:13:51
Программа кодирования : mkvmerge v8.3.0 ('Over the Horizon') 64bit
Библиотека кодирования : libebml v1.3.1 + libmatroska v1.4.2

Видео
Идентификатор : 1
Формат : AVC
Формат/Информация : Advanced Video Codec
Профиль формата : High@L4.1
Параметр CABAC формата : Да
Параметр RefFrames формата : 4 кадра
Идентификатор кодека : V_MPEG4/ISO/AVC
Продолжительность : 1 ч. 26 м.
Вид битрейта : Переменный
Битрейт : 6557 Кбит/сек
Максимальный битрейт : 7500 Кбит/сек
Ширина : 1280 пикселей
Высота : 536 пикселей
Соотношение сторон : 2,40:1
Режим частоты кадров : Постоянный
Частота кадров : 23,976 (24000/1001) кадра/сек
Стандарт вещания : Component
Цветовое пространство : YUV
Субдискретизация насыщенности : 4:2:0
Битовая глубина : 8 бит
Тип развёртки : Прогрессивная
Бит/(Пиксели*Кадры) : 0.390
Размер потока : 3,87 Гбайт (92%)
Default : Да
Forced : Нет
Цветовой диапазон : Limited
Основные цвета : BT.709
Характеристики трансфера : BT.709
Коэффициенты матрицы : BT.709

Аудио
Идентификатор : 2
Формат : AC-3
Формат/Информация : Audio Coding 3
Расширение режима : CM (complete main)
Параметр Endianness формата : Big
Идентификатор кодека : A_AC3
Продолжительность : 1 ч. 26 м.
Вид битрейта : Постоянный
Битрейт : 448 Кбит/сек
Каналы : 2 канала
Расположение каналов : Front: L R
Частота : 48,0 КГц
Частота кадров : 31,250 кадров/сек (1536 spf)
Метод сжатия : С потерями
Размер потока : 277 Мбайт (6%)
Default : Да
Forced : Нет

pb.wtf



Скачать Вуаль через торрент https://d.radikal.ru/d32/1904/1e/879518a02400.jpg Скачать фильм Вуаль через торрент бесплантно в хорошем качестве Описание: На земле, раздираемой кровавыми баталиями, появляется великий воин. После предательства своих же людей он находит спасение в ... 10 10 2
Торрент: Зарегистрирован [2019-04-08 13:08] · скачан: 42 раз
Статус: T временная
Размер: 4.23 GB
Как cкачать? Как скачать Вуаль через торрент | qTorrent

% Раздел Тема Автор DL S | L
T Фильмы (мультфильмы) cо спонсором показа (Новинки AVI/MKV) [ 1.37 GB ] Вуаль / The Veil [2017 HDRip] MVO [Официальный звук] bober100 Скачать
1 | 0
T Фильмы (мультфильмы) cо спонсором показа (Новинки AVI/MKV) [ 7.53 GB ] Вуаль / The Veil [2017 BDRip 1080p] MVO [Официальный звук] bober100 Скачать
1 | 0
Фильмы [HD 720p, 1080p] (Хороший звук DUB, MVO) [ 5.36 GB ] Разрисованная вуаль / The Painted Veil [2006 BDRip 720p by msltel] DUB DVO AVO msltel Скачать
1 | 0
Фильмы [HD 720p, 1080p] (Хороший звук DUB, MVO) [ 15.22 GB ] Разрисованная вуаль / The Painted Veil [2006 BDRip 1080p by msltel] DUB DVO AVO msltel Скачать
1 | 0
R.G. Resident & PiratVoice - Фильмы, Видео [ 2.03 GB ] Вуаль / The Veil [2016 BDRip-AVC] - R.G.Resident schultz Скачать
1 | 0
T Фильмы (Blu-ray, BD-Remux, HDDVD) [ 16.18 GB ] Вуаль / The Veil [2016 BDRemux 1080p от ExKinoRay] Russian Mafia Скачать
1 | 0
T Фильмы 2016 [DVDrip, WEB-DLRip, HDrip] (DUB, MVO) [ 1.42 GB ] Вуаль / The Veil (2016 BDRip] Dub Twi7ter Скачать
1 | 0

28-11-2019 20:33  

Отключить всю рекламу на сайте

    Дорогой пользователь! Огромная просьба, поблагодарите релизера, оцените раздачу и оставьте свои комментарий, если Вы скачали Вуаль через торрент бесплатно! Внесите свою лепту в развитие PiratBit!
    Комментировать посты могут только пользователи прошедшие не сложную регистрацию
    Показать сообщения:    

    Вуаль через торрент
    Скачать бесплатно Вуаль
    Вуаль скачать торрент
    Вуаль смотреть онлайн
    Cкачать фильм Вуаль бесплатно
    Вуаль скачать торрент в хорошем качестве
    Вуаль смотреть онлайн бесплатно в хорошем качестве


    Вы не можете начинать темы
    Вы не можете отвечать на сообщения
    Вы не можете редактировать свои сообщения
    Вы не можете удалять свои сообщения
    Вы не можете голосовать в опросах
    Вы не можете прикреплять файлы к сообщениям
    Вы можете скачивать файлы