Ссылка на приватное зеркало всего за 1$. Внимание количество ограничено!!!

OK

1+1

iTunes

мы

OK

1

WEB-DLRip

Джокер

Пифагор

Ведьмак / The Witcher сериал

iTunes

ПШазам

ОК

Оно 2

iTunes

30
pack

Вам бонус

ВАЖНО

!!Акция!!

Alien_RageХит недели

RePack

Resident Evil 21

ИГРА 18+

pack

RePack

jed

RePack

fifa19

RePack

Assassins Creed: Odyssey

RePack

NEED FOR SPEED™ PAYBACK

4 сезон

9 сезон

Бесстыжие 9 сезон

Все сериалы

все сериалы на PB.wtf

RePack

FAR CRY 5
  

Положитесь на Пита / Lean on Pete (Эндрю Хэй) [2017, драма, приключения, BDRip 720p] MVO [Официальный звук] pb.wtf

Положитесь на Пита через торрент pb.wtf

Размер: 6 GB | Добавлен: 9 мес. назад | Торрент скачан:37 раз
Скачать  

08-04-2019 13:59 Положитесь на Пита Скачать торрент  

Положитесь на Пита / Lean on PeteГод выпуска: 2017
Страна: Великобритания
Жанр: драма, приключения
Продолжительность: 02:02:48
Перевод: Профессиональный (многоголосый) | Официальный звук
Субтитры: отсутствуют

Режиссер: Эндрю Хэй

rating

В ролях:

Чарли Пламмер, Эми Саймец, Трэвис Фиммел, Стив Бушеми, Джейсон Бим, Толо Туттеле, Айанна Беркшир, Коннор Бренес, Курт Конройд, Хлоя Севиньи

Описание:

Одинокий подросток Чарли в компании украденной лошади отправляется на поиски своей последней родственницы - давно пропавшей тети. Его ждет опасное и печальное путешествие на пути к простой мечте о доме.

Качество: BDRip 720p
Формат: MKV

Видео: 6 551 Кбит/с, 1280x696
Аудио: Русский (AC3, 2 ch, 448 Кбит/с)
скриншот  скриншот  скриншот  

Общее
Уникальный идентификатор : 179462274804536698748079880921407574600 (0x87032D48E2A0738F8D5E677AA9445248)
Полное имя : D:\Lean.on.pete.2017.Pof.BDRip.72Op.mkv
Формат : Matroska
Версия формата : Version 2
Размер файла : 6,00 Гбайт
Продолжительность : 2 ч. 2 м.
Режим общего битрейта : Переменный
Общий поток : 7001 Кбит/сек
Дата кодирования : UTC 2019-04-08 08:23:30
Программа кодирования : mkvmerge v8.3.0 ('Over the Horizon') 64bit
Библиотека кодирования : libebml v1.3.1 + libmatroska v1.4.2

Видео
Идентификатор : 1
Формат : AVC
Формат/Информация : Advanced Video Codec
Профиль формата : High@L4.1
Параметр CABAC формата : Да
Параметр RefFrames формата : 4 кадра
Идентификатор кодека : V_MPEG4/ISO/AVC
Продолжительность : 2 ч. 2 м.
Вид битрейта : Переменный
Битрейт : 6551 Кбит/сек
Максимальный битрейт : 7500 Кбит/сек
Ширина : 1280 пикселей
Высота : 696 пикселей
Соотношение сторон : 1,85:1
Режим частоты кадров : Постоянный
Частота кадров : 23,976 (24000/1001) кадра/сек
Стандарт вещания : Component
Цветовое пространство : YUV
Субдискретизация насыщенности : 4:2:0
Битовая глубина : 8 бит
Тип развёртки : Прогрессивная
Бит/(Пиксели*Кадры) : 0.300
Размер потока : 5,50 Гбайт (92%)
Default : Да
Forced : Нет
Цветовой диапазон : Limited
Основные цвета : BT.709
Характеристики трансфера : BT.709
Коэффициенты матрицы : BT.709

Аудио
Идентификатор : 2
Формат : AC-3
Формат/Информация : Audio Coding 3
Расширение режима : CM (complete main)
Параметр Endianness формата : Big
Идентификатор кодека : A_AC3
Продолжительность : 2 ч. 2 м.
Вид битрейта : Постоянный
Битрейт : 448 Кбит/сек
Каналы : 2 канала
Расположение каналов : Front: L R
Частота : 48,0 КГц
Частота кадров : 31,250 кадров/сек (1536 spf)
Метод сжатия : С потерями
Размер потока : 393 Мбайт (6%)
Default : Да
Forced : Нет

pb.wtf



Скачать Положитесь на Пита через торрент https://a.radikal.ru/a02/1904/68/9074e58f7fb7.jpg Скачать фильм Положитесь на Пита через торрент бесплантно в хорошем качестве Описание: Одинокий подросток Чарли в компании украденной лошади отправляется на поиски своей последней родственницы - давно пропавшей тети. ... 10 10 5
Торрент: Зарегистрирован [2019-04-08 13:59] · скачан: 37 раз
Статус: T временная
Размер: 6 GB
Как cкачать? Как скачать Положитесь на Пита через торрент | qTorrent

% Раздел Тема Автор DL S | L
T Фильмы (мультфильмы) cо спонсором показа (Новинки AVI/MKV) [ 2.05 GB ] Положитесь на Пита / Lean on Pete [2017 HDRip] MVO [Официальный звук] bober100 Скачать
2 | 0
T Фильмы (мультфильмы) cо спонсором показа (Новинки AVI/MKV) [ 1.37 GB ] Положитесь на Пита / Lean on Pete [2017 HDRip] MVO [Официальный звук] bober100 Скачать
1 | 0

28-11-2019 20:33  

Отключить всю рекламу на сайте

    Дорогой пользователь! Огромная просьба, поблагодарите релизера, оцените раздачу и оставьте свои комментарий, если Вы скачали Положитесь на Пита через торрент бесплатно! Внесите свою лепту в развитие PiratBit!
    Комментировать посты могут только пользователи прошедшие не сложную регистрацию
    Показать сообщения:    

    Положитесь на Пита через торрент
    Скачать бесплатно Положитесь на Пита
    Положитесь на Пита скачать торрент
    Положитесь на Пита смотреть онлайн
    Cкачать фильм Положитесь на Пита бесплатно
    Положитесь на Пита скачать торрент в хорошем качестве
    Положитесь на Пита смотреть онлайн бесплатно в хорошем качестве


    Вы не можете начинать темы
    Вы не можете отвечать на сообщения
    Вы не можете редактировать свои сообщения
    Вы не можете удалять свои сообщения
    Вы не можете голосовать в опросах
    Вы не можете прикреплять файлы к сообщениям
    Вы можете скачивать файлы