Ссылка на приватное зеркало всего за 1$. Внимание количество ограничено!!!


iTunes

1+1

iTunes

мы

WEB-DL

1

iTunes

Чернобыль

iTunes

Ральф против интернета

Лицензия

ПШазам

Лицензия

Оно 2

WEB-DL

30
pack

Вам бонус

ВАЖНО

!!Акция!!

Alien_RageХит недели

RePack

Resident Evil 21

ИГРА 18+

pack

RePack

jed

!!Акция!!

Alien_Rage

RePack

fifa19

RePack

Assassins Creed: Odyssey

RePack

NEED FOR SPEED™ PAYBACK

4 сезон

9 сезон

Бесстыжие 9 сезон

Все сериалы

все сериалы на PB.wtf

RePack

FAR CRY 5
Ребята, катастрофически не хватает 1900р. для оплаты серверов за Октябрь (всвязи с блокировками трафик упал в 3 раза), 1-2р., выручайте.
  

В погоне за Бонни и Клайдом / Разбойники с большой дороги / The Highwaymen (Джон Ли Хэнкок) [2019, триллер, драма, криминал, детектив, WEB-DLRip-AVC] DUB [АРК-ТВ Studio & VSI International] pb.wtf

В погоне за Бонни и Клайдом через торрент pb.wtf

Раздают: 1 [ 0 KB/s ]
Размер: 2.17 GB | Добавлен: 8 мес. назад | Торрент скачан:837 раз
Скачать  

08-04-2019 14:17 В погоне за Бонни и Клайдом Скачать торрент  

В погоне за Бонни и Клайдом / Разбойники с большой дороги / The Highwaymen Год выпуска: 2019
Страна: США
Жанр: триллер, драма, криминал, детектив
Продолжительность: 02:12:16
Перевод: Дублированный | АРК-ТВ Studio & VSI International
Субтитры: Pусские (форс., полные), английские (SDH)

Режиссер: Джон Ли Хэнкок

rating

В ролях:

Кевин Костнер (Frank Hamer), Вуди Харрельсон (Maney Gault), Ким Диккенс (Gladys Hamer), Эмили Бробст (Bonnie Parker), Кэти Бейтс (Governor Ma Ferguson), У. Эрл Браун (Ivy Methvin), Джон Кэрролл Линч (Lee Simmons), Томас Манн (Ted Hinton), Edward Bossert (Clyde Barrow), Дэвид Фурр (John Quinn), Джейн МакНейлл (Emma Parker), Джесси Бойд (Ray Hamilton)

Описание:

В 1930-е годы техасский рейнджер Фрэнк Хеймер получает задание поймать и обезвредить двух опасных грабителей банков. Вместе с напарником Мэнни Голтом он возглавляет охоту за парочкой молодых неуловимых преступников, которых зовут Бонни и Клайд.

Качество: WEB-DLRip-AVC
Формат: MKV

Видео: 1024x426 (2.40:1), 24,000 fps, x264 ~1 717 kbps avg, 0.164 bit/pixel
Аудио#1: 48 kHz, AC3 Dolby Digital, 3/2 (L,C,R,l,r) + LFE ch, ~384.00 kbps avg | RUS (АРК-ТВ Studio и VSI International)
Аудио#2: 48 kHz, AC3 Dolby Digital, 3/2 (L,C,R,l,r) + LFE ch, ~256.00 kbps avg | ENG
скриншот  скриншот  скриншот  скриншот  скриншот  

Общее
Уникальный идентификатор : 5516526733075247890735889372534360383 (0x42671C45B76560D9713E8C3F4ED493F)
Полное имя : F:OlLanDGroupThe.Highwaymen.2019.NF.WEB-DLRip(AVC).OlLanDGroup.mkv
Формат : Matroska
Версия формата : Version 4 / Version 2
Размер файла : 2,17 Гбайт
Продолжительность : 2 ч. 12 м.
Общий поток : 2354 Кбит/сек
Название фильма : The Highwaymen (2019) - #TorpedoUK#
Дата кодирования : UTC 2019-03-29 16:30:46
Программа кодирования : mkvmerge v29.0.0 ('Like It Or Not') 64-bit
Библиотека кодирования : libebml v1.3.6 + libmatroska v1.4.9

Видео
Идентификатор : 1
Формат : AVC
Формат/Информация : Advanced Video Codec
Профиль формата : High@L4.1
Параметр CABAC формата : Да
Параметр ReFrames формата : 10 кадров
Идентификатор кодека : V_MPEG4/ISO/AVC
Продолжительность : 2 ч. 12 м.
Битрейт : 1717 Кбит/сек
Ширина : 1024 пикселя
Высота : 426 пикселей
Соотношение сторон : 2,40:1
Режим частоты кадров : Постоянный
Частота кадров : 24,000 кадра/сек
Цветовое пространство : YUV
Субдискретизация насыщенности : 4:2:0
Битовая глубина : 8 бит
Тип развёртки : Прогрессивная
Бит/(Пиксели*Кадры) : 0.164
Размер потока : 1,58 Гбайт (73%)
Библиотека кодирования : x264 core 146 r2538 121396c
Настройки программы : cabac=1 / ref=10 / deblock=1:-3:-3 / analyse=0x3:0x113 / me=umh / subme=10 / psy=1 / psy_rd=0.98:0.04 / mixed_ref=1 / me_range=48 / chroma_me=1 / trellis=2 / 8x8dct=1 / cqm=0 / deadzone=21,11 / fast_pskip=1 / chroma_qp_offset=-3 / threads=6 / lookahead_threads=1 / sliced_threads=0 / nr=0 / decimate=1 / interlaced=0 / bluray_compat=0 / constrained_intra=0 / bframes=11 / b_pyramid=2 / b_adapt=2 / b_bias=0 / direct=3 / weightb=1 / open_gop=0 / weightp=2 / keyint=240 / keyint_min=24 / scenecut=40 / intra_refresh=0 / rc_lookahead=40 / rc=2pass / mbtree=0 / bitrate=1717 / ratetol=1.0 / qcomp=0.60 / qpmin=0 / qpmax=69 / qpstep=4 / cplxblur=20.0 / qblur=0.5 / vbv_maxrate=50000 / vbv_bufsize=62500 / nal_hrd=none / filler=0 / ip_ratio=1.40 / pb_ratio=1.30 / aq=1:1.00
Default : Да
Forced : Нет

Аудио #1
Идентификатор : 2
Формат : AC-3
Формат/Информация : Audio Coding 3
Расширение режима : CM (complete main)
Параметр Endianness формата : Big
Идентификатор кодека : A_AC3
Продолжительность : 2 ч. 12 м.
Вид битрейта : Постоянный
Битрейт : 384 Кбит/сек
Каналы : 6 каналов
Расположение каналов : Front: L C R, Side: L R, LFE
Частота : 48,0 КГц
Частота кадров : 31,250 кадров/сек (1536 spf)
Битовая глубина : 16 бит
Метод сжатия : С потерями
Размер потока : 363 Мбайт (16%)
Заголовок : DUB [АРК-ТВ Studio и VSI International]
Язык : Russian
Default : Да
Forced : Нет

Аудио #2
Идентификатор : 3
Формат : AC-3
Формат/Информация : Audio Coding 3
Расширение режима : CM (complete main)
Параметр Endianness формата : Big
Идентификатор кодека : A_AC3
Продолжительность : 2 ч. 12 м.
Вид битрейта : Постоянный
Битрейт : 256 Кбит/сек
Каналы : 6 каналов
Расположение каналов : Front: L C R, Side: L R, LFE
Частота : 48,0 КГц
Частота кадров : 31,250 кадров/сек (1536 spf)
Битовая глубина : 16 бит
Метод сжатия : С потерями
Размер потока : 242 Мбайт (11%)
Заголовок : [Original]
Язык : English
Default : Нет
Forced : Нет

Текст #1
Идентификатор : 4
Формат : UTF-8
Идентификатор кодека : S_TEXT/UTF8
Идентификатор кодека/Информация : UTF-8 Plain Text
Продолжительность : 2 ч. 11 м.
Битрейт : 2 бит/сек
Count of elements : 43
Размер потока : 2,35 Кбайт (0%)
Заголовок : Forced
Язык : Russian
Default : Да
Forced : Нет

Текст #2
Идентификатор : 5
Формат : UTF-8
Идентификатор кодека : S_TEXT/UTF8
Идентификатор кодека/Информация : UTF-8 Plain Text
Продолжительность : 2 ч. 11 м.
Битрейт : 61 бит/сек
Count of elements : 1375
Размер потока : 59,2 Кбайт (0%)
Заголовок : Full
Язык : Russian
Default : Нет
Forced : Нет

Текст #3
Идентификатор : 6
Формат : UTF-8
Идентификатор кодека : S_TEXT/UTF8
Идентификатор кодека/Информация : UTF-8 Plain Text
Продолжительность : 2 ч. 2 м.
Битрейт : 49 бит/сек
Count of elements : 1455
Размер потока : 44,8 Кбайт (0%)
Заголовок : SDH
Язык : English
Default : Нет
Forced : Нет

pb.wtf



Скачать В погоне за Бонни и Клайдом через торрент https://i109.fastpic.ru/big/2019/0329/00/73e6caf178919e65b752c72a9753c600.jpg Скачать фильм В погоне за Бонни и Клайдом через торрент бесплантно в хорошем качестве Описание: В 1930-е годы техасский рейнджер Фрэнк Хеймер получает задание поймать и обезвредить двух опасных грабителей банков. Вместе с ... 10 10 19
Info! Золотая раздача, скачанное не засчитывается.
Торрент: Зарегистрирован [2019-04-08 14:17] · скачан: 837 раз
Статус: √ проверено
Размер: 2.17 GB
Как cкачать? Как скачать В погоне за Бонни и Клайдом через торрент | qTorrent

% Раздел Тема Автор DL S | L
Ultra HD (UHD: 2K, 4K, 8K) — видео сверхвысокой чёткости [ 18.03 GB ] В погоне за Бонни и Клайдом / Разбойники с большой дороги / The Highwaymen [2019 UHD WEBRip 2160p] DUB + DVO + AVO sheker187 Скачать
2 | 0
Ultra HD (UHD: 2K, 4K, 8K) — видео сверхвысокой чёткости [ 24.66 GB ] В погоне за Бонни и Клайдом / Разбойники с большой дороги / The Highwaymen [2019 UHD WEBRip 2160p] [SDR] DUB [АРК-ТВ Studio и VSI International] + AVO [Ю. Немахов] sheker187 Скачать
1 | 0
Фильмы (WEB-DL 720p, 1080p) [ 3.4 GB ] В погоне за Бонни и Клайдом / Разбойники с большой дороги / The Highwaymen [2019 WEB-DL 720p] DUB [АРК-ТВ Studio & VSI International] bober100 Скачать
4 | 0
Фильмы 2019 [DVDrip, WEB-DLRip, HDrip] (DUB, MVO) [ 1.47 GB ] В погоне за Бонни и Клайдом / Разбойники с большой дороги / The Highwaymen [2019 WEB-DLRip ] Kuzich Скачать
8 | 0

28-11-2019 20:33  

Отключить всю рекламу на сайте

    Дорогой пользователь! Огромная просьба, поблагодарите релизера, оцените раздачу и оставьте свои комментарий, если Вы скачали В погоне за Бонни и Клайдом через торрент бесплатно! Внесите свою лепту в развитие PiratBit!
    Комментировать посты могут только пользователи прошедшие не сложную регистрацию
    Показать сообщения:    

    В погоне за Бонни и Клайдом через торрент
    Скачать бесплатно В погоне за Бонни и Клайдом
    В погоне за Бонни и Клайдом скачать торрент
    В погоне за Бонни и Клайдом смотреть онлайн
    Cкачать фильм В погоне за Бонни и Клайдом бесплатно
    В погоне за Бонни и Клайдом скачать торрент в хорошем качестве
    В погоне за Бонни и Клайдом смотреть онлайн бесплатно в хорошем качестве


    Вы не можете начинать темы
    Вы не можете отвечать на сообщения
    Вы не можете редактировать свои сообщения
    Вы не можете удалять свои сообщения
    Вы не можете голосовать в опросах
    Вы не можете прикреплять файлы к сообщениям
    Вы можете скачивать файлы