Ссылка на приватное зеркало нашего сайта всего за 1$. Внимание количество ограничено!!!

2 сезон

iTunes

1 сезон

1

2 сезон

2 сезон

iTunes

1 сезон

RePack

30

Ultimate

ВАЖНО

ИГРА 18+

pack

RePack

MK11
pack

Забери бонус

RePack

jed

!!Акция!!

Alien_Rage

RePack

fifa19

RePack

Assassins Creed: Odyssey

RePack

NEED FOR SPEED™ PAYBACK

4 сезон

9 сезон

Бесстыжие 9 сезон

Все сериалы

все сериалы на PB.wtf

RePack

FAR CRY 5
  

Три дня на побег / The Next Three Days (Пол Хаггис) [2010 г., триллер, драма, мелодрама, криминал, BDRip 1080p] 2xDUB, DVO, AVO (Ю.Сербин) pb.wtf

Три дня на побег через торрент pb.wtf

Раздают: 1 [ 0 KB/s ]
Размер: 19.77 GB | Добавлен: 1 год 7 мес. назад | Торрент скачан:58 раз
Скачать  

08-04-2019 20:41 Три дня на побег Скачать торрент  

Три дня на побег / The Next Three Days
Год выпуска: 2010

Страна: США, Франция

Жанр: Триллер, драма, мелодрама, криминал

Продолжительность: 02:13:19

Перевод: Дублированный, профессиональный (двухголосый), авторский (одноголосый)

Субтитры: Русские, украинские, английские

Режиссер: Пол Хаггис

rating

В ролях: Расселл Кроу, Элизабет Бэнкс, Майкл Бьюи, Моран Атиас, Реми Нозик, Тоби Грин, Тайлер Грин, Джейсон Бех, Аиша Хиндс, Тай Симпкинс, Вероника Браун, Оливия Уайлд, Лесли Мэрилл МакКомбс, Алисса Хаггис, Дэниэл Стерн, Джеймс Донис, Хелен Кэри, Брайан Деннехи, Рэйчел Дикон, Гленн Таранто, Дерек Сесил, Кейт Уайсс

Описание: Счастливая уравновешенная жизнь семьи разрушается арестом жены. Лару обвиняют в преднамеренном убийстве и отправляют за решетку на 20 лет. Джон начинает бороться за свободу жены, но все законные способы исчерпаны. И тогда остается либо смириться и воспитывать ребенка самому, либо устроить жене побег. И не важно, виновата жена или нет, главное, чтобы она была свободна и их семья воссоединилась. И вот простой школьный учитель уже планирует и организовывает сложнейший побег из тюрьмы. Через сколько же кругов ада должен пройти Кроу, через сколько запретов и законов переступить, чтобы добиться своего… Но он слишком этого хотел. И он это сделал!
Качество: BDRip 1080p
Формат: MKV
Видео кодек: MPEG-4 AVC
Аудио кодек: DTS, AC3
Видео: MPEG-4 AVC, 13.5 Мбит/с, 1920x816, 23.976 кадр/с
Аудио#1: Русский, DTS, 6 ch, 1510 Кбит/сек - DUB
Аудио#2: Русский, DTS, 6 ch, 1510 Кбит/сек - DVO (Кубик в Кубе)
Аудио#3: Русский, DTS, 6 ch, 1510 Кбит/сек - AVO (Ю.Сербин)
Аудио#4: Украинский, DTS, 6 ch, 1510 Кбит/сек - DUB
Аудио#5: Английский, DTS, 6 ch, 1509 Кбит/сек
Аудио#5: Английский, AC-3, 2 ch, 192 Кбит/сек - commentary
Видео
Идентификатор : 1
Формат : AVC
Формат/Информация : Advanced Video Codec
Профиль формата : High@L4.1
Настройки формата : CABAC / 5 Ref Frames
Параметр CABAC формата : Да
Параметр RefFrames формата : 5 кадров
Идентификатор кодека : V_MPEG4/ISO/AVC
Продолжительность : 2 ч. 13 м.
Битрейт : 13,5 Мбит/сек
Ширина : 1920 пикселей
Высота : 816 пикселей
Соотношение сторон : 2,35:1
Режим частоты кадров : Постоянный
Частота кадров : 23,976 (24000/1001) кадра/сек
Цветовое пространство : YUV
Субдискретизация насыщенности : 4:2:0
Битовая глубина : 8 бит
Тип развёртки : Прогрессивная
Бит/(Пиксели*Кадры) : 0.359
Размер потока : 12,2 Гбайт (62%)
Библиотека кодирования : x264 core 114 r1900 60ef1f8
Настройки программы : cabac=1 / ref=5 / deblock=1:-3:-3 / analyse=0x3:0x133 / me=tesa / subme=10 / psy=1 / psy_rd=1.20:0.00 / mixed_ref=1 / me_range=32 / chroma_me=1 / trellis=2 / 8x8dct=1 / cqm=0 / deadzone=21,11 / fast_pskip=0 / chroma_qp_offset=-2 / threads=12 / sliced_threads=0 / nr=0 / decimate=1 / interlaced=0 / constrained_intra=0 / bframes=6 / b_pyramid=2 / b_adapt=2 / b_bias=0 / direct=3 / weightb=1 / open_gop=0 / weightp=2 / keyint=250 / keyint_min=23 / scenecut=40 / intra_refresh=0 / rc_lookahead=40 / rc=2pass / mbtree=1 / bitrate=13500 / ratetol=1.0 / qcomp=0.60 / qpmin=0 / qpmax=69 / qpstep=4 / cplxblur=20.0 / qblur=0.5 / ip_ratio=1.40 / aq=1:0.60
Язык : English
Default : Нет
Forced : Нет

Аудио #1
Идентификатор : 2
Формат : DTS
Формат/Информация : Digital Theater Systems
Идентификатор кодека : A_DTS
Продолжительность : 2 ч. 13 м.
Вид битрейта : Постоянный
Битрейт : 1510 Кбит/сек
Каналы : 6 каналов
Channel layout : C L R Ls Rs LFE
Частота : 48,0 КГц
Частота кадров : 93,750 кадра/сек (512 SPF)
Битовая глубина : 16 бит
Метод сжатия : С потерями
Размер потока : 1,40 Гбайт (7%)
Заголовок : DTS 5.1, ~1536 kbps |Дубляж, Blu-Ray|
Язык : Russian
Default : Да
Forced : Нет

Аудио #2
Идентификатор : 3
Формат : DTS
Формат/Информация : Digital Theater Systems
Идентификатор кодека : A_DTS
Продолжительность : 2 ч. 13 м.
Вид битрейта : Постоянный
Битрейт : 1510 Кбит/сек
Каналы : 6 каналов
Channel layout : C L R Ls Rs LFE
Частота : 48,0 КГц
Частота кадров : 93,750 кадра/сек (512 SPF)
Битовая глубина : 24 бит
Метод сжатия : С потерями
Размер потока : 1,40 Гбайт (7%)
Заголовок : DTS 5.1, ~1536 kbps |Двухголосый закадровый, Кубик в Кубе|
Язык : Russian
Default : Нет
Forced : Нет

Аудио #3
Идентификатор : 4
Формат : DTS
Формат/Информация : Digital Theater Systems
Идентификатор кодека : A_DTS
Продолжительность : 2 ч. 13 м.
Вид битрейта : Постоянный
Битрейт : 1510 Кбит/сек
Каналы : 6 каналов
Channel layout : C L R Ls Rs LFE
Частота : 48,0 КГц
Частота кадров : 93,750 кадра/сек (512 SPF)
Битовая глубина : 24 бит
Метод сжатия : С потерями
Размер потока : 1,40 Гбайт (7%)
Заголовок : DTS 5.1, ~1536 kbps |Одноголосый закадровый, Ю.Сербин|
Язык : Russian
Default : Нет
Forced : Нет

Аудио #4
Идентификатор : 5
Формат : DTS
Формат/Информация : Digital Theater Systems
Идентификатор кодека : A_DTS
Продолжительность : 2 ч. 13 м.
Вид битрейта : Постоянный
Битрейт : 1510 Кбит/сек
Каналы : 6 каналов
Channel layout : C L R Ls Rs LFE
Частота : 48,0 КГц
Частота кадров : 93,750 кадра/сек (512 SPF)
Битовая глубина : 16 бит
Метод сжатия : С потерями
Размер потока : 1,40 Гбайт (7%)
Заголовок : DTS 5.1, ~1536 kbps |Дубляж, Blu-Ray|
Язык : Ukrainian
Default : Нет
Forced : Нет

Аудио #5
Идентификатор : 6
Формат : DTS
Формат/Информация : Digital Theater Systems
Идентификатор кодека : A_DTS
Продолжительность : 2 ч. 13 м.
Вид битрейта : Постоянный
Битрейт : 1509 Кбит/сек
Каналы : 6 каналов
Channel layout : C L R Ls Rs LFE
Частота : 48,0 КГц
Частота кадров : 93,750 кадра/сек (512 SPF)
Битовая глубина : 24 бит
Метод сжатия : С потерями
Задержка видео : 11 мс.
Размер потока : 1,40 Гбайт (7%)
Заголовок : English
Язык : English
Default : Нет
Forced : Нет

Аудио #6
Идентификатор : 7
Формат : AC-3
Формат/Информация : Audio Coding 3
Коммерческое название : Dolby Digital
Идентификатор кодека : A_AC3
Продолжительность : 2 ч. 13 м.
Вид битрейта : Постоянный
Битрейт : 192 Кбит/сек
Каналы : 2 канала
Channel layout : L R
Частота : 48,0 КГц
Частота кадров : 31,250 кадров/сек (1536 SPF)
Битовая глубина : 16 бит
Метод сжатия : С потерями
Размер потока : 183 Мбайт (1%)
Заголовок : commentary
Язык : English
ServiceKind/String : Complete Main
Default : Нет
Forced : Нет

Текст #1
Идентификатор : 8
Формат : UTF-8
Идентификатор кодека : S_TEXT/UTF8
Идентификатор кодека/Информация : UTF-8 Plain Text
Заголовок : Blu-ray
Язык : Russian
Default : Нет
Forced : Нет

Текст #2
Идентификатор : 9
Формат : UTF-8
Идентификатор кодека : S_TEXT/UTF8
Идентификатор кодека/Информация : UTF-8 Plain Text
Заголовок : Voronin
Язык : Russian
Default : Нет
Forced : Нет

Текст #3
Идентификатор : 10
Формат : UTF-8
Идентификатор кодека : S_TEXT/UTF8
Идентификатор кодека/Информация : UTF-8 Plain Text
Заголовок : Blu-ray
Язык : Ukrainian
Default : Нет
Forced : Нет

Текст #4
Идентификатор : 11
Формат : PGS
Идентификатор кодека : S_HDMV/PGS
Идентификатор кодека/Информация : Picture based subtitle format used on BDs/HD-DVDs
Заголовок : Full
Язык : English
Default : Нет
Forced : Нет

Текст #5
Идентификатор : 12
Формат : PGS
Идентификатор кодека : S_HDMV/PGS
Идентификатор кодека/Информация : Picture based subtitle format used on BDs/HD-DVDs
Заголовок : SDH
Язык : English
Default : Нет
Forced : Нет

Меню
00:00:00.000 : en:00:00:00.000
00:13:34.439 : en:00:13:34.439
00:24:08.572 : en:00:24:08.572
00:34:31.361 : en:00:34:31.361
00:39:52.348 : en:00:39:52.348
00:44:26.581 : en:00:44:26.581
00:53:59.862 : en:00:53:59.862
00:57:53.804 : en:00:57:53.804
01:03:46.948 : en:01:03:46.948
01:07:22.372 : en:01:07:22.372
01:19:12.164 : en:01:19:12.164
01:28:39.523 : en:01:28:39.523
01:34:29.747 : en:01:34:29.747
01:45:59.895 : en:01:45:59.895
01:51:51.663 : en:01:51:51.663
01:58:58.256 : en:01:58:58.256

скриншот   скриншот   скриншот   скриншот   скриншот  

pb.wtf



Скачать Три дня на побег через торрент http://pic1.kartinco.top/images/12/hcxgy.jpg Скачать фильм Три дня на побег через торрент бесплантно в хорошем качестве Описание: Счастливая уравновешенная жизнь семьи разрушается арестом жены. Лару обвиняют в преднамеренном убийстве и отправляют за решетку ... 10 10 5
Info! Золотая раздача, скачанное не засчитывается.
Торрент: Зарегистрирован [2019-04-08 20:41] · скачан: 58 раз
Статус: √ проверено
Размер: 19.77 GB
Как cкачать? Как скачать Три дня на побег через торрент | qTorrent

% Раздел Тема Автор DL S | L
Фильмы [HD 720p, 1080p] (Хороший звук DUB, MVO) [ 9.22 GB ] Три дня на побег / The Next Three Days [2010 BDRip-HEVC 1080p] DUB RealOldGamer Скачать
4 | 0
Фильмы [HD 720p, 1080p] (Хороший звук DUB, MVO) [ 9.66 GB ] Три дня на побег / The Next Three Days [2010 BDRip 720p] Dub MVO AVO potroks Скачать
2 | 0
Фильмы 2010 [ 1.37 GB ] Три дня на побег / Next Three Days The [2010 HDRip лицензия] Lil Badun Скачать
1 | 1
Фильмы 2010 [ 2.05 GB ] Три дня на побег / Next Three Days The [2010 HDRip лицензия] L_E_X Скачать
1 | 1
Фильмы 2010 [ 1.47 GB ] Три дня на побег / The Next Three Days [2010 BDRip-AVC] Sудья Скачать
1 | 1
Фильмы 2010 [ 2.1 GB ] Три дня на побег / The Next Three Days [2010 HDRip-AVC] DUB stalonе Скачать
1 | 2
Фильмы [HD 720p, 1080p] (Хороший звук DUB, MVO) [ 4.37 GB ] Три дня на побег / The Next Three Days [2010 BDRip 1080р] smaster Скачать
2 | 1

28-11-2019 20:33  

Отключить всю рекламу на сайте

    Дорогой пользователь! Огромная просьба, поблагодарите релизера, оцените раздачу и оставьте свои комментарий, если Вы скачали Три дня на побег через торрент бесплатно! Внесите свою лепту в развитие PiratBit!
    Комментировать посты могут только пользователи прошедшие не сложную регистрацию
    Показать сообщения:    

    Три дня на побег через торрент
    Скачать бесплатно Три дня на побег
    Три дня на побег скачать торрент
    Три дня на побег смотреть онлайн
    Cкачать фильм Три дня на побег бесплатно
    Три дня на побег скачать торрент в хорошем качестве
    Три дня на побег смотреть онлайн бесплатно в хорошем качестве


    Вы не можете начинать темы
    Вы не можете отвечать на сообщения
    Вы не можете редактировать свои сообщения
    Вы не можете удалять свои сообщения
    Вы не можете голосовать в опросах
    Вы не можете прикреплять файлы к сообщениям
    Вы можете скачивать файлы