Ссылка на приватное зеркало нашего сайта всего за 1$. Внимание количество ограничено!!!

2 сезон

iTunes

1 сезон

1

iTunes

iTunes

iTunes

1 сезон

RePack

30

ИГРА 18+

pack

ВАЖНО

!!Акция!!

Alien_RageХит недели

RePack

MK11
pack

Забери бонус

RePack

jed

!!Акция!!

Alien_Rage

RePack

fifa19

RePack

Assassins Creed: Odyssey

RePack

NEED FOR SPEED™ PAYBACK

4 сезон

9 сезон

Бесстыжие 9 сезон

Все сериалы

все сериалы на PB.wtf

RePack

FAR CRY 5
  

Шерлок Холмс / Серии: 1-8 из 8 (Андрей Кавун) [2013, детектив, приключения, WEB-DL 1080p] pb.wtf

Шерлок Холмс через торрент pb.wtf

Размер: 20.6 GB | Добавлен: 1 год 6 мес. назад | Торрент скачан:52 раза
Скачать  

09-04-2019 01:39 Шерлок Холмс Скачать торрент  

Шерлок Холмс Год выпуска: 2013
Страна: Россия
Жанр: детектив, приключения
Продолжительность: ~ 01:27:00
Перевод: Не требуется
Субтитры: отсутствуют

Режиссер: Андрей Кавун



В ролях:

Игорь Петренко, Андрей Панин, Леонид Ярмольник, Михаил Боярский, Лянка Грыу, Ингеборга Дапкунайте, Алексей Горбунов, Александр Голубев, Игорь Скляр, Александр Адабашьян, Ольга Красько, Андрей Мерзликин, Дмитрий Лысенков, Елизавета Боярская

Описание:

Этот сериал возвращает нас на Бейкер-стрит, 221б, где проживают уже давно знакомые персонажи: гениальный сыщик Шерлок Холмс и его друг и летописец, ветеран афганской войны доктор Джон Ватсон. Только теперь у них новые лица: главные роли исполняют звёзды нового актёрского поколения, Игорь Петренко и Андрей Панин. История, как и прежде, начинается со знакомства: доктор Ватсон, в поисках жилья в Лондоне, снимает квартиру у добропорядочной вдовы, миссис Хадсон, на пару с весьма эксцентричным молодым человеком, чей род занятий он никак не может вычислить. Ватсон приходит к выводу, что его сосед — злоумышленник и преступник, но выясняется, что всё ровно наоборот: Шерлок Холмс — гроза преступного мира, знаменитый частный сыщик, к услугам которого Скотленд-Ярд прибегает, когда чувствует своё бессилие (а происходит это регулярно). Доктор вовлекается в захватывающую жизнь своего нового друга, становится его постоянным напарником в расследованиях — и пишет рассказы об их совместных похождениях.

Качество: WEB-DL 1080p
Формат: MKV

Видео: 1920х1076 (16:9), 25 fps, AVC MPEG-4 (x264), High@L4.0 ~ 4000 kbps avg, 0.077 bit/pixel
Аудио: 48 kHz, AC3, 2 ch, 192 kbps avg
скриншот  скриншот  скриншот  скриншот  

General
Unique ID : 184969209487430487911492227628871882233 (0x8B27C6208C5E0C94AEDACEC0DCC695F9)
Complete name : D:\Раздачи\Шерлок Холмс (1-8 фильмы из 8 1-16 серии из 16) WEB-DL (1080p)\Sherlok.Holms.(02.seriya.iz.08).2013.WEB-DL.(1080p).MediaClub.mkv
Format : Matroska
Format version : Version 2
File size : 2.55 GiB
Duration : 1h 27mn
Overall bit rate : 4 190 Kbps
Movie name : Sherlok.Holms.(02.seriya.iz.08).2013.WEB-DL.(1080p).MediaClub
Encoded date : UTC 2014-06-12 10:13:27
Writing application : mkvmerge v5.8.0 ('No Sleep / Pillow') built on Sep 2 2012 15:37:04
Writing library : libebml v1.2.3 + libmatroska v1.3.0

Video
ID : 1
Format : AVC
Format/Info : Advanced Video Codec
Format profile : High@L4
Format settings, CABAC : Yes
Format settings, ReFrames : 3 frames
Format settings, GOP : N=1
Codec ID : V_MPEG4/ISO/AVC
Duration : 1h 27mn
Bit rate : 4 000 Kbps
Width : 1 920 pixels
Height : 1 076 pixels
Display aspect ratio : 16:9
Frame rate mode : Constant
Frame rate : 25.000 fps
Color space : YUV
Chroma subsampling : 4:2:0
Bit depth : 8 bits
Scan type : Progressive
Bits/(Pixel*Frame) : 0.077
Stream size : 2.38 GiB (93%)
Writing library : x264 core 142 r2389 956c8d8
Encoding settings : cabac=1 / ref=3 / deblock=1:0:0 / analyse=0x3:0x133 / me=umh / subme=7 / psy=1 / psy_rd=1.00:0.00 / mixed_ref=1 / me_range=32 / chroma_me=1 / trellis=2 / 8x8dct=1 / cqm=0 / deadzone=21,11 / fast_pskip=1 / chroma_qp_offset=-2 / threads=12 / lookahead_threads=2 / sliced_threads=0 / nr=0 / decimate=1 / interlaced=0 / bluray_compat=0 / constrained_intra=0 / bframes=0 / weightp=0 / keyint=75 / keyint_min=26 / scenecut=40 / intra_refresh=0 / rc_lookahead=50 / rc=2pass / mbtree=0 / bitrate=4000 / ratetol=1.0 / qcomp=0.20 / qpmin=10 / qpmax=51 / qpstep=4 / cplxblur=20.0 / qblur=0.5 / vbv_maxrate=5000 / vbv_bufsize=5000 / nal_hrd=none / filler=0 / ip_ratio=1.40 / aq=1:1.00
Default : Yes
Forced : Yes
Color range : Limited
Color primaries : BT.709
Transfer characteristics : BT.709
Matrix coefficients : BT.709

Audio
ID : 2
Format : AC-3
Format/Info : Audio Coding 3
Mode extension : CM (complete main)
Format settings, Endianness : Big
Codec ID : A_AC3
Duration : 1h 27mn
Bit rate mode : Constant
Bit rate : 192 Kbps
Channel(s) : 2 channels
Channel positions : Front: L R
Sampling rate : 48.0 KHz
Frame rate : 31.250 fps (1536 spf)
Compression mode : Lossy
Stream size : 119 MiB (5%)
Language : Russian
Default : Yes
Forced : Yes

pb.wtf



Скачать Шерлок Холмс через торрент http://i62.fastpic.ru/big/2014/0612/4f/0e3365143ff01461aef464de6259d34f.jpg Скачать фильм Шерлок Холмс через торрент бесплантно в хорошем качестве Описание: Этот сериал возвращает нас на Бейкер-стрит, 221б, где проживают уже давно знакомые персонажи: гениальный сыщик Шерлок Холмс и его ... 10 10 5
Торрент: Зарегистрирован [2019-04-09 01:39] · скачан: 52 раз
Статус: √ проверено
Размер: 20.6 GB
Как cкачать? Как скачать Шерлок Холмс через торрент | qTorrent

% Раздел Тема Автор DL S | L
Наши сериалы [ 31.41 GB ] Шерлок Холмс / Серии: 1-8 из 8 [2013 HDTV 1080p] bober100 Скачать
1 | 0

28-11-2019 20:33  

Отключить всю рекламу на сайте

    Дорогой пользователь! Огромная просьба, поблагодарите релизера, оцените раздачу и оставьте свои комментарий, если Вы скачали Шерлок Холмс через торрент бесплатно! Внесите свою лепту в развитие PiratBit!
    Комментировать посты могут только пользователи прошедшие не сложную регистрацию
    Показать сообщения:    

    Шерлок Холмс через торрент
    Скачать бесплатно Шерлок Холмс
    Шерлок Холмс скачать торрент
    Шерлок Холмс смотреть онлайн
    Cкачать фильм Шерлок Холмс бесплатно
    Шерлок Холмс скачать торрент в хорошем качестве
    Шерлок Холмс смотреть онлайн бесплатно в хорошем качестве


    Вы не можете начинать темы
    Вы не можете отвечать на сообщения
    Вы не можете редактировать свои сообщения
    Вы не можете удалять свои сообщения
    Вы не можете голосовать в опросах
    Вы не можете прикреплять файлы к сообщениям
    Вы можете скачивать файлы