Ссылка на приватное зеркало нашего сайта всего за 1$. Внимание количество ограничено!!!

2 сезон

iTunes

1 сезон

1

2 сезон

2 сезон

iTunes

1 сезон

RePack

30

Новинка

ВАЖНО

ИГРА 18+

pack

RePack

MK11
pack

Забери бонус

RePack

jed

!!Акция!!

Alien_Rage

RePack

fifa19

RePack

Assassins Creed: Odyssey

RePack

NEED FOR SPEED™ PAYBACK

4 сезон

9 сезон

Бесстыжие 9 сезон

Все сериалы

все сериалы на PB.wtf

RePack

FAR CRY 5
  

Хроники Шаннары / The Shannara Chronicles / Сезон: 1-2 / Серии: 1-20 из 20 (Брэд Тернер, Джонатан Либесман, Джеймс Маршалл) [2016-2017, Фантастика, фэнтези, приключения, WEB-DLRip] MVO [LostFilm] pb.wtf

Хроники Шаннары через торрент pb.wtf

Размер: 9.85 GB | Добавлен: 1 год 7 мес. назад | Торрент скачан:142 раза
Скачать  

09-04-2019 02:19 Хроники Шаннары Скачать торрент  

Хроники Шаннары | The Shannara Chronicles • Год выпуска: 2016
• Страна: США, Новая Зеландия
• Жанр: фантастика, фэнтези, приключения
• Продолжительность: ~ 00:43:00
• Перевод: Профессиональный (многоголосый закадровый) | LostFilm
• Субтитры: отсутствуют

• Режиссёр: Брэд Тернер, Джонатан Либесман, Джеймс Маршалл

В ролях:

Ивана Бакеро, Дэниэл МакФерсон, Джон Рис-Дэвис, Маркус Ванко, Брук Уильямс, Ману Беннетт, Остин Роберт Батлер, Поппи Дрейтон, Аарон Якубенко и др.

Описание:

События сериала происходят в далёком будущем. Войны разделили Северную Америку на 4 части. На какой-то из них обитают эльфы, на иной — люди, на третьей — тролли и на четвёртой — дворфы.
Основными персонажами сериала окажутся отпрыски древнего рода эльфов — Шаннара. Именно от них будет зависеть будущая судьба планеты…



• Качество: WEB-DLRip (чистый видеоряд)
• Формат: AVI

• Видео: XviD, ~ 1550 kbps | 720x400 (16:9) | 23.976
• Аудио #1: MP3 | 48.0 KHz | 2 ch | 128 kbps - Rus
• Аудио #2: MP3 | 48.0 KHz | 2 ch | 128 kbps - Eng
Рип qqss44
перевод и озвучание LostFilm
Чистый рип, без заставки и логотипа
Общее
Полное имя                               : X:\ATorrent\The Shannara Chronicles (Season 01) LostFilm\The.Shannara.Chronicles.[S01E01].XviD.LostFilm.[qqss44].avi
Формат                                   : AVI
Формат/Информация                        : Audio Video Interleave
Размер файла                             : 531 Мбайт
Продолжительность                        : 41 м.
Общий поток                              : 1797 Кбит/сек
Программа кодирования                    : VirtualDubMod 1.5.10.3 | www.virtualdub-fr.org || (build 2550/release)
Библиотека кодирования                   : VirtualDubMod build 2550/release

Видео
Идентификатор                            : 0
Формат                                   : MPEG-4 Visual
Профиль формата                          : Advanced Simple@L5
Параметр BVOP формата                    : 2
Параметр QPel формата                    : Нет
Параметр GMC формата                     : Без точки перехода
Параметр матрицы формата                 : Default (MPEG)
Идентификатор кодека                     : XVID
Идентификатор кодека/Подсказка           : XviD
Продолжительность                        : 41 м.
Битрейт                                  : 1527 Кбит/сек
Ширина                                   : 720 пикселей
Высота                                   : 400 пикселей
Соотношение сторон                       : 16:9
Частота кадров                           : 23,976 кадра/сек
Цветовое пространство                    : YUV
Субдискретизация насыщенности            : 4:2:0
Битовая глубина                          : 8 бит
Тип развёртки                            : Прогрессивная
Метод сжатия                             : С потерями
Бит/(Пиксели*Кадры)                      : 0.221
Размер потока                            : 451 Мбайт (85%)
Библиотека кодирования                   : XviD 73

Аудио #1
Идентификатор                            : 1
Формат                                   : MPEG Audio
Версия формата                           : Version 1
Профиль формата                          : Layer 3
Режим                                    : Joint stereo
Расширение режима                        : MS Stereo
Идентификатор кодека                     : 55
Идентификатор кодека/Подсказка           : MP3
Продолжительность                        : 41 м.
Вид битрейта                             : Постоянный
Битрейт                                  : 128 Кбит/сек
Каналы                                   : 2 канала
Частота                                  : 48,0 КГц
Метод сжатия                             : С потерями
Размер потока                            : 37,8 Мбайт (7%)
Выравнивание                             : Соединение по промежуткам
Продолжительность промежутка             : 42  мс. (1,00 видеокадр)
Время предзагрузки промежутка            : 504  мс.

Аудио #2
Идентификатор                            : 2
Формат                                   : MPEG Audio
Версия формата                           : Version 1
Профиль формата                          : Layer 3
Режим                                    : Joint stereo
Расширение режима                        : MS Stereo
Идентификатор кодека                     : 55
Идентификатор кодека/Подсказка           : MP3
Продолжительность                        : 41 м.
Вид битрейта                             : Постоянный
Битрейт                                  : 128 Кбит/сек
Каналы                                   : 2 канала
Частота                                  : 48,0 КГц
Метод сжатия                             : С потерями
Размер потока                            : 37,8 Мбайт (7%)
Выравнивание                             : Соединение по промежуткам
Продолжительность промежутка             : 42  мс. (1,00 видеокадр)
Время предзагрузки промежутка            : 504  мс.
скриншот  скриншот  скриншот  скриншот  
Когда раздача ведётся путём добавления новых серий, при каждом добавлении создётся новый торрент. Чтобы начать докачку новой серии, пользователям необходимо сделать следующее:
(1) остановить скачивание,
(2) удалить старый торрент у себя из клиента (старые серии удалять не надо),
(3) скачать новый торрент и запустить его у себя в клиенте вместо старого, при этом указать клиенту путь в старую папку, куда и должно происходить скачивание новых серий.
Ваш клиент при этом должен произвести хеширование (проверку) старой папки (если не производит сам - помогите ему сделать это), и будет докачивать только те серии, которых у вас ещё нет. Старые серии при этом не удаляются, а продолжают раздаваться!
Eсли вы уже удалили старые серии, то предотвратить повторную закачку старых серий можно, отжав галочку в соответсвующих местах при запуске нового торрента. По возможности, желательно не удалять старые серии как можно дольше, чтобы релизёр не столько продолжал раздавать старые серии, а смог сконцентрироваться на новых.
pb.wtf



Скачать Хроники Шаннары через торрент https://a.radikal.ru/a25/1904/18/689107ae7eed.png Скачать фильм Хроники Шаннары через торрент бесплантно в хорошем качестве Описание: События сериала происходят в далёком будущем. Войны разделили Северную Америку на 4 части. На какой-то из них обитают эльфы, на ... 10 10 5
Торрент: Зарегистрирован [2019-04-09 02:19] · скачан: 142 раз
Статус: √ проверено
Размер: 9.85 GB
Как cкачать? Как скачать Хроники Шаннары через торрент | qTorrent

% Раздел Тема Автор DL S | L
Зарубежные сериалы [ 11.66 GB ] Хроники Шаннары / The Shannara Chronicles / Сезон: 2 / Серии: 1-10 из 10 [2017 WEBRip 720p] MVO [Jaskier] bober100 Скачать
1 | 0
Зарубежные сериалы [ 5.37 GB ] Хроники Шаннары / The Shannara Chronicles / Сезон 2 / Серии 1-10 из 10 [2017 WEB-DLRip] MVO [NewStudio] bober100 Скачать
1 | 0
Зарубежные сериалы [ 4.96 GB ] Хроники Шаннары / The Shannara Chronicles / Сезон 2 / Серии 1-10 из 10 [2017 WEB-DLRip] MVO [LostFilm] от qqss44 Russian Mafia Скачать
1 | 0
Зарубежные сериалы [ 5.37 GB ] Хроники Шаннары / The Shannara Chronicles / Сезон 2 / Серии 1-10 из 10 [2017 WEBRip] MVO [Jaskier] bober100 Скачать
1 | 0
Зарубежные сериалы [ 11.15 GB ] Хроники Шаннары / The Shannara Chronicles / Сезон 2 / Серии 1-10 из 10 [2017 WEB-DL 720p] MVO [Alexfilm] bober100 Скачать
1 | 0
Зарубежные сериалы [ 5.71 GB ] Хроники Шаннары / The Shannara Chronicles / Сезон 2 / Серии 1-10 из 10 [2017 WEBRip] MVO [BaibaKo] bober100 Скачать
1 | 0
Зарубежные сериалы [ 30.3 GB ] Хроники Шаннары / The Shannara Chronicles / Сезон 2 / Серии 1-10 из 10 [2017 WEBRip 1080p] MVO [Jaskier] bober100 Скачать
1 | 0

28-11-2019 20:33  

Отключить всю рекламу на сайте

    Дорогой пользователь! Огромная просьба, поблагодарите релизера, оцените раздачу и оставьте свои комментарий, если Вы скачали Хроники Шаннары через торрент бесплатно! Внесите свою лепту в развитие PiratBit!
    Комментировать посты могут только пользователи прошедшие не сложную регистрацию
    Показать сообщения:    

    Хроники Шаннары через торрент
    Скачать бесплатно Хроники Шаннары
    Хроники Шаннары скачать торрент
    Хроники Шаннары смотреть онлайн
    Cкачать фильм Хроники Шаннары бесплатно
    Хроники Шаннары скачать торрент в хорошем качестве
    Хроники Шаннары смотреть онлайн бесплатно в хорошем качестве


    Вы не можете начинать темы
    Вы не можете отвечать на сообщения
    Вы не можете редактировать свои сообщения
    Вы не можете удалять свои сообщения
    Вы не можете голосовать в опросах
    Вы не можете прикреплять файлы к сообщениям
    Вы можете скачивать файлы