Ссылка на приватное зеркало всего за 1$. Внимание количество ограничено!!!

OK

1+1

iTunes

мы

OK

1

WEB-DLRip

Джокер

Пифагор

Ведьмак / The Witcher сериал

Лицензия

ПШазам

ОК

Оно 2

iTunes

30
pack

Вам бонус

ВАЖНО

!!Акция!!

Alien_RageХит недели

RePack

Resident Evil 21

ИГРА 18+

pack

RePack

jed

RePack

fifa19

RePack

Assassins Creed: Odyssey

RePack

NEED FOR SPEED™ PAYBACK

4 сезон

9 сезон

Бесстыжие 9 сезон

Все сериалы

все сериалы на PB.wtf

RePack

FAR CRY 5
  

Добро пожаловать в Акапулько / Welcome to Acapulco (Гильермо Иван) [2019, боевик, триллер, комедия, WEB-DL 1080p] MVO [HDRezka Studio] - ExKinoRay pb.wtf

Добро пожаловать в Акапулько через торрент pb.wtf

Раздают: 3 [ 0 KB/s ]
Размер: 3.19 GB | Добавлен: 9 мес. назад | Торрент скачан:134 раза
Скачать  

09-04-2019 04:48 Добро пожаловать в Акапулько Скачать торрент  

Название: Добро пожаловать в Акапулько
Оригинальное название: Welcome to Acapulco
Год выпуска: 2019
Жанр: Боевик, триллер, комедия
Режиссер: Гильермо Иван
В ролях: Уильям Болдуин, Майкл Мэдсен, Брэдли Грегг, Ана Серрадилья, Майкл Кингсбэйкер, Анна Лаевская, Гильермо Иван, Зэк Роуз, Гильермо Гарсия, Мария Елена Эредия, Освальдо де Леон

Описание: У разработчика компьютерных игр Мэтта Бута есть один шанс спасти свою карьеру, представив свой самый крупный проект на церемонии вручения наград в американском Нью-Мексико. Но весело отметив встречу с приятелем в аэропорту, он оказывается в мексиканском городе Акапулько. После приземления Мэтт оказывается объектом охоты преступников, киллеров и федералов, ищущих таинственный пакет, который он якобы провез через таможню, но о котором ничего не знает. Объединившись с роковой красоткой и выпустив на волю своего «внутреннего экшен героя», он раскрывает заговор, который может потрясти все Соединенные Штаты, а возможно, и целый мир.

rating

Выпущено: Болгария, Мексика, США, Open Frames, Golden Ceiba Productions, Global Group
Продолжительность: 01:28:59
Перевод: Профессиональный (многоголосый, закадровый) | HDRezka Studio
Субтитры: Английские

БЕЗ КАКОЙ-ЛИБО РЕКЛАМЫ!

Формат: MKV
Качество: WEB-DL 1080p
Видео: MPEG-4 AVC, 1920x804 (2.40:1), 23.976 fps, 4450 Kbps, 0.120 bit/pixel
Аудио 1: 48 kHz, AC3, 2.0, 192 Kbps | MVO | RUS |
Аудио 2: 48 kHz, AC3, 5.1, 384 Kbps | Оригинал | ENG |
General
Unique ID : 253549781716879200889978254459121279446 (0xBEBFE9652E26982895D43EE18621A1D6)
Complete name : F:\hdrezka\Welcome.to.Acapulco.2019.MVO.1080p.WEB-DL.ExKinoRay.mkv
Format : Matroska
Format version : Version 2
File size : 3.19 GiB
Duration : 1 h 28 min
Overall bit rate : 5 128 kb/s
Movie name : Welcome to Acapulco 2019 from ExKinoRay
Encoded date : UTC 2019-04-09 02:54:08
Writing application : mkvmerge v5.6.0 ('Kenya Kane') built on May 27 2012 16:44:04
Writing library : libebml v1.2.3 + libmatroska v1.3.0

Video
ID : 1
Format : AVC
Format/Info : Advanced Video Codec
Format profile : High@L4
Format settings, CABAC : Yes
Format settings, ReFrames : 5 frames
Codec ID : V_MPEG4/ISO/AVC
Duration : 1 h 28 min
Bit rate : 4 450 kb/s
Width : 1 920 pixels
Height : 804 pixels
Display aspect ratio : 2.40:1
Frame rate mode : Constant
Frame rate : 23.976 (24000/1001) FPS
Color space : YUV
Chroma subsampling : 4:2:0
Bit depth : 8 bits
Scan type : Progressive
Bits/(Pixel*Frame) : 0.120
Stream size : 2.77 GiB (87%)
Title : Welcome.to.Acapulco.2019.1080p
Language : English
Default : Yes
Forced : No
Color range : Limited
Color primaries : BT.709
Transfer characteristics : BT.709
Matrix coefficients : BT.709

Audio #1
ID : 2
Format : AC-3
Format/Info : Audio Coding 3
Mode extension : CM (complete main)
Format settings, Endianness : Big
Codec ID : A_AC3
Duration : 1 h 28 min
Bit rate mode : Constant
Bit rate : 192 kb/s
Channel(s) : 2 channels
Channel positions : Front: L R
Sampling rate : 48.0 kHz
Frame rate : 31.250 FPS (1536 spf)
Compression mode : Lossy
Delay relative to video : -42 ms
Stream size : 122 MiB (4%)
Title : MVO (HDRezka Studio)
Language : Russian
Default : No
Forced : No

Audio #2
ID : 3
Format : AC-3
Format/Info : Audio Coding 3
Mode extension : CM (complete main)
Format settings, Endianness : Big
Codec ID : A_AC3
Duration : 1 h 28 min
Bit rate mode : Constant
Bit rate : 384 kb/s
Channel(s) : 6 channels
Channel positions : Front: L C R, Side: L R, LFE
Sampling rate : 48.0 kHz
Frame rate : 31.250 FPS (1536 spf)
Compression mode : Lossy
Delay relative to video : -42 ms
Stream size : 244 MiB (7%)
Title : Original
Language : English
Default : No
Forced : No

Text
ID : 4
Format : UTF-8
Codec ID : S_TEXT/UTF8
Codec ID/Info : UTF-8 Plain Text
Language : English
Default : No
Forced : No

Menu
00:00:00.000 : en:Chapter 1
00:09:52.801 : en:Chapter 2
00:18:24.187 : en:Chapter 3
00:27:02.580 : en:Chapter 4
00:36:52.419 : en:Chapter 5
00:45:51.958 : en:Chapter 6
00:53:44.972 : en:Chapter 7
01:03:03.030 : en:Chapter 8
01:11:51.892 : en:Chapter 9
01:20:33.330 : en:Chapter 10
01:24:37.282 : en:Chapter 11
Релиз от:

Автор релиза: pb.wtf



Скачать Добро пожаловать в Акапулько через торрент https://a.radikal.ru/a09/1904/44/09853e464b25.jpg Скачать фильм Добро пожаловать в Акапулько через торрент бесплантно в хорошем качестве Описание: У разработчика компьютерных игр Мэтта Бута есть один шанс спасти свою карьеру, представив свой самый крупный проект на ... 10 10 7
Info! Золотая раздача, скачанное не засчитывается.
Торрент: Зарегистрирован [2019-04-09 04:48] · скачан: 134 раз
Статус: T временная
Размер: 3.19 GB
Как cкачать? Как скачать Добро пожаловать в Акапулько через торрент | qTorrent

% Раздел Тема Автор DL S | L
Фильмы [HD 720p, 1080p] (Хороший звук DUB, MVO) [ 3.12 GB ] Добро пожаловать в Акапулько / Welcome to Acapulco [2019 BDRip 720p] Dub MVO [HDRezka Studio] - ExKinoRay Enigma2010 Скачать
5 | 0
T Фильмы 2019-2020 [DVDrip, WEB-DLRip, HDrip] (DUB, MVO) [ 1.37 GB ] Добро пожаловать в Акапулько / Welcome to Acapulco [2019 WEB-DLRip] MVO [HDRezka Studio] - ExKinoRay Enigma2010 Скачать
2 | 0

28-11-2019 20:33  

Отключить всю рекламу на сайте

09-04-2019 20:17 Добро пожаловать в Акапулько Скачать торрент  

и...как?pb.wtf



    Дорогой пользователь! Огромная просьба, поблагодарите релизера, оцените раздачу и оставьте свои комментарий, если Вы скачали Добро пожаловать в Акапулько через торрент бесплатно! Внесите свою лепту в развитие PiratBit!
    Комментировать посты могут только пользователи прошедшие не сложную регистрацию
    Показать сообщения:    

    Добро пожаловать в Акапулько через торрент
    Скачать бесплатно Добро пожаловать в Акапулько
    Добро пожаловать в Акапулько скачать торрент
    Добро пожаловать в Акапулько смотреть онлайн
    Cкачать фильм Добро пожаловать в Акапулько бесплатно
    Добро пожаловать в Акапулько скачать торрент в хорошем качестве
    Добро пожаловать в Акапулько смотреть онлайн бесплатно в хорошем качестве


    Вы не можете начинать темы
    Вы не можете отвечать на сообщения
    Вы не можете редактировать свои сообщения
    Вы не можете удалять свои сообщения
    Вы не можете голосовать в опросах
    Вы не можете прикреплять файлы к сообщениям
    Вы можете скачивать файлы