Ссылка на приватное зеркало нашего сайта всего за 1$. Внимание количество ограничено!!!

2 сезон

iTunes

1 сезон

1

2 сезон

2 сезон

iTunes

1 сезон

RePack

30

Ultimate

ВАЖНО

ИГРА 18+

pack

RePack

MK11
pack

Забери бонус

RePack

jed

!!Акция!!

Alien_Rage

RePack

fifa19

RePack

Assassins Creed: Odyssey

RePack

NEED FOR SPEED™ PAYBACK

4 сезон

9 сезон

Бесстыжие 9 сезон

Все сериалы

все сериалы на PB.wtf

RePack

FAR CRY 5
  

Воин / Warrior / Сезон: 1 / Серии: 1-10 из 10 (Лони Перистер, Лин Одинг, Дэвид Петрарка) [2019, боевик, драма, история, WEB-DLRip] MVO [Кириллица] pb.wtf

Воин через торрент pb.wtf

Размер: 6.78 GB | Добавлен: 1 год 5 мес. назад | Торрент скачан:40 раз
Скачать  

09-04-2019 06:34 Воин Скачать торрент  


Воин / Warrior
Год выпуска: 2019
Страна: США
Жанр: боевик, драма, история
Продолжительность: ~01:00:00 серия
Перевод: Профессиональный многоголосый | Кириллица по заказу Amedia
Субтитры: Русские (форсированные)

Режиссер: Лони Перистер, Лин Одинг, Дэвид Петрарка

rating


В ролях:

Джейсон Дж. Тобин, Эндрю Кодзи, Оливия Ченг, Киран Бью, Дайян Доан, Дин Джаггер III, Лэнгли Кирквуд, Перри Юнг, Райан Крюгер, Рич Тинг

Описание:

Сериал основан на оригинальной идее Брюса Ли. В 1890-х годах город Сан-Франциско страдал от коррупции и мафии. В китайском квартале Сан-Франциско междоусобные войны достигли особого размаха. В это неспокойное время в город из Китая прибывает молодой мастер восточных единоборств А Сам (Ah Sahm). Молодой человек тут же оказывается втянутым в кровавые разборки между двумя опасными соперничающими друг с другом группировками Тонг в Чайнатауне. А Сам подвергает себя смертельной опасности, после того как план мести, который он готовил не один год, становится известен его врагам.

Качество: WEB-DLRip
Формат: AVI

Видео: XviD, ~ 1500 Кбит/с, 720x400
Аудио#1: Русский (AC3, 2 ch, 192 Кбит/с)
Аудио#2: английский (AC3, 2 ch, 192 Кбит/с)
скриншот  скриншот  скриншот  скриншот  скриншот  

Format : AVI
Format/Info : Audio Video Interleave
File size : 870 MiB
Duration : 1h 0mn
Overall bit rate : 1 998 Kbps
Movie name : Воин 1х01: Батраку неймётся
Director : Бёдвар (WEB-DLRip 400p)
Writing application : VirtualDubModRus 1.5.10.2 (build 2542/release)
Comment : 09.04.2019

Video
ID : 0
Format : MPEG-4 Visual
Format profile : Advanced Simple@L5
Format settings, BVOP : 1
Format settings, QPel : No
Format settings, GMC : No warppoints
Format settings, Matrix : Default (MPEG)
Codec ID : XVID
Codec ID/Hint : XviD
Duration : 1h 0mn
Bit rate : 1 599 Kbps
Width : 720 pixels
Height : 400 pixels
Display aspect ratio : 16:9
Frame rate : 23.976 (24000/1001) fps
Color space : YUV
Chroma subsampling : 4:2:0
Bit depth : 8 bits
Scan type : Progressive
Compression mode : Lossy
Bits/(Pixel*Frame) : 0.232
Stream size : 697 MiB (80%)
Writing library : XviD 67

Audio #1
ID : 1
Format : AC-3
Format/Info : Audio Coding 3
Mode extension : CM (complete main)
Format settings, Endianness : Big
Codec ID : 2000
Duration : 1h 0mn
Bit rate mode : Constant
Bit rate : 192 Kbps
Channel(s) : 2 channels
Channel positions : Front: L R
Sampling rate : 48.0 KHz
Frame rate : 31.250 fps (1536 spf)
Compression mode : Lossy
Stream size : 83.6 MiB (10%)
Alignment : Split accross interleaves
Interleave, duration : 42 ms (1.00 video frame)
Interleave, preload duratio : 500 ms

Audio #2
ID : 2
Format : AC-3
Format/Info : Audio Coding 3
Mode extension : CM (complete main)
Format settings, Endianness : Big
Codec ID : 2000
Duration : 1h 0mn
Bit rate mode : Constant
Bit rate : 192 Kbps
Channel(s) : 2 channels
Channel positions : Front: L R
Sampling rate : 48.0 KHz
Frame rate : 31.250 fps (1536 spf)
Compression mode : Lossy
Stream size : 83.6 MiB (10%)
Alignment : Split accross interleaves
Interleave, duration : 42 ms (1.00 video frame)
Interleave, preload duratio : 500 ms

Раздача ведётся путём добавления новых серий; при каждом добавлении создаётся новый торрент.
Чтобы начать докачку новой серии, пользователям необходимо сделать следующее:
1. остановить скачивание,
2. удалить старый торрент у себя из клиента (старые серии удалять не надо),
3. скачать новый торрент и запустить его у себя в клиенте вместо старого, при этом указать клиенту путь в старую папку, куда и должно происходить скачивание новых серий.
pb.wtf



Скачать Воин через торрент https://i109.fastpic.ru/big/2019/0520/cc/11daf699e3559bb02391df817ea971cc.png Скачать фильм Воин через торрент бесплантно в хорошем качестве Описание: Сериал основан на оригинальной идее Брюса Ли. В 1890-х годах город Сан-Франциско страдал от коррупции и мафии. В китайском ... 9 10 10
Торрент: Зарегистрирован [2019-06-09 18:05] · скачан: 40 раз
Статус: √ проверено
Размер: 6.78 GB
Как cкачать? Как скачать Воин через торрент | qTorrent

% Раздел Тема Автор DL S | L
Зарубежные сериалы [ 23.85 GB ] Воин / Warrior / Сезон: 2 / Серии: 1-8 из 10 [2020 история WEB-DL 1080p] 2xMVO [Jaskier LostFilm] bober100 Скачать
2 | 0
T Зарубежные сериалы [ 22.28 GB ] Воин / Warrior / Сезон: 2 / Серии: 1-9 из 10 [2020 история WEBRip 1080p] MVO [Kerob] bober100 Скачать
2 | 2
Зарубежные сериалы [ 9.64 GB ] Воин / Warrior / Сезон: 2 / Серии: 1-8 из 10 [2020 история WEB-DL 1080p] [MVO] killermax2013 Скачать
2 | 0
Зарубежные сериалы [ 12.48 GB ] Воин / Warrior / Сезон: 2 / Серии: 1-9 из 10 [2020 история WEB-DL 720p] MVO [Jaskier] bober100 Скачать
1 | 1
Зарубежные сериалы [ 11.67 GB ] Воин / Warrior / Сезон: 2 / Серии: 1-8 из 10 [2020 история WEB-DL 720p] MVO [LostFilm] bober100 Скачать
1 | 1
Зарубежные сериалы [ 24.98 GB ] Воин / Warrior / Сезон: 2 / Серии: 1-9 из 10 [2020 история WEB-DL 1080p] MVO [Jaskier] bober100 Скачать
1 | 0
Зарубежные сериалы [ 5.38 GB ] Воин / Warrior / Сезон: 2 / Серии: 1-9 из 10 [2020 история WEB-DLRip] MVO [Jaskier] bober100 Скачать
1 | 1

28-11-2019 20:33  

Отключить всю рекламу на сайте

    Дорогой пользователь! Огромная просьба, поблагодарите релизера, оцените раздачу и оставьте свои комментарий, если Вы скачали Воин через торрент бесплатно! Внесите свою лепту в развитие PiratBit!
    Комментировать посты могут только пользователи прошедшие не сложную регистрацию
    Показать сообщения:    

    Воин через торрент
    Скачать бесплатно Воин
    Воин скачать торрент
    Воин смотреть онлайн
    Cкачать фильм Воин бесплатно
    Воин скачать торрент в хорошем качестве
    Воин смотреть онлайн бесплатно в хорошем качестве


    Вы не можете начинать темы
    Вы не можете отвечать на сообщения
    Вы не можете редактировать свои сообщения
    Вы не можете удалять свои сообщения
    Вы не можете голосовать в опросах
    Вы не можете прикреплять файлы к сообщениям
    Вы можете скачивать файлы