Ссылка на приватное зеркало всего за 1$. Внимание количество ограничено!!!

OK

1+1

iTunes

мы

OK

1

WEB-DLRip

Джокер

Пифагор

Ведьмак / The Witcher сериал

iTunes

ПШазам

ОК

Оно 2

iTunes

30
pack

Вам бонус

ВАЖНО

!!Акция!!

Alien_RageХит недели

RePack

Resident Evil 21

ИГРА 18+

pack

RePack

jed

RePack

fifa19

RePack

Assassins Creed: Odyssey

RePack

NEED FOR SPEED™ PAYBACK

4 сезон

9 сезон

Бесстыжие 9 сезон

Все сериалы

все сериалы на PB.wtf

RePack

FAR CRY 5
  

Красный остров / Red Island (Lux) [2018 г., Триллер, WEB-DLRip, Любительский (многоголосый)(Синема УС)] pb.wtf

Красный остров через торрент pb.wtf

Размер: 1.32 GB | Добавлен: 9 мес. назад | Торрент скачан:45 раз
Скачать  

09-04-2019 09:03 Красный остров Скачать торрент  

Красный остров / Red Island
Год выпуска: 2018
Страна: Канада
Жанр: Триллер
Продолжительность: 01:20:01
Перевод: Любительский (многоголосый)
Субтитры: Отсутствуют

Режиссер: Lux

rating

В ролях: Александра Эссоу, Джордж Дабурас, Тоуни Уэст ...

Описание: Чтобы немного побыть наедине и возродить отношения, супружеская пара отправляется на заброшенный остров. Но там всё становится только хуже: Эми оказывается под зачарована необъяснимой магией острова и забывает о муже, а он скрывает от неё истинную причину приезда именно на этот остров и вынашивает корыстные планы.

Доп. информация: Присутствуют вставки текстовой рекламы

Качество: WEB-DLRip
Формат: AVI
Видео кодек: XviD
Аудио кодек: AC3
Видео: XviD, 720x304, ~1969 Kbps
Аудио#1: AC-3, 2 ch, 384 Kbps
скриншот   скриншот   скриншот   скриншот  

Общее
Полное имя : C:\_\Красный остров\Red Island 2018 WEB-DLRip.avi
Формат : AVI
Формат/Информация : Audio Video Interleave
Профиль формата : OpenDML
Размер файла : 1,32 Гбайт
Продолжительность : 1 ч. 20 м.
Общий поток : 2365 Кбит/сек

Видео
Идентификатор : 0
Формат : MPEG-4 Visual
Профиль формата : Advanced Simple@L5
Параметр BVOP формата : 2
Параметр QPel формата : Нет
Параметр GMC формата : Без точки перехода
Параметр матрицы формата : Выборочная
Идентификатор кодека : XVID
Идентификатор кодека/Подсказка : XviD
Продолжительность : 1 ч. 20 м.
Битрейт : 1969 Кбит/сек
Ширина : 720 пикселей
Высота : 304 пикселя
Соотношение сторон : 2,35:1
Частота кадров : 23,976 (24000/1001) кадра/сек
Цветовое пространство : YUV
Субдискретизация насыщенности : 4:2:0
Битовая глубина : 8 бит
Тип развёртки : Прогрессивная
Метод сжатия : С потерями
Бит/(Пиксели*Кадры) : 0.375
Размер потока : 1,10 Гбайт (83%)
Библиотека кодирования : XviD 1.2.1 (UTC 2008-12-04)

Аудио
Идентификатор : 1
Формат : AC-3
Формат/Информация : Audio Coding 3
Расширение режима : CM (complete main)
Параметр Endianness формата : Big
Идентификатор кодека : 2000
Продолжительность : 1 ч. 20 м.
Вид битрейта : Постоянный
Битрейт : 384 Кбит/сек
Каналы : 2 канала
Расположение каналов : Front: L R
Частота : 48,0 КГц
Частота кадров : 31,250 кадров/сек (1536 spf)
Метод сжатия : С потерями
Размер потока : 220 Мбайт (16%)
Выравнивание : Соединение по промежуткам
Продолжительность промежутка : 32 мс. (0,77 видеокадр)

pb.wtf



Скачать Красный остров через торрент http://pic1.kartinco.top/images/12/g8wjz.jpg Скачать фильм Красный остров через торрент бесплантно в хорошем качестве Описание: Чтобы немного побыть наедине и возродить отношения, супружеская пара отправляется на заброшенный остров. Но там всё становится ... 5.5 10 2
Торрент: Зарегистрирован [2019-04-09 09:03] · скачан: 45 раз
Статус: T временная
Размер: 1.32 GB
Как cкачать? Как скачать Красный остров через торрент | qTorrent

28-11-2019 20:33  

Отключить всю рекламу на сайте

    Дорогой пользователь! Огромная просьба, поблагодарите релизера, оцените раздачу и оставьте свои комментарий, если Вы скачали Красный остров через торрент бесплатно! Внесите свою лепту в развитие PiratBit!
    Комментировать посты могут только пользователи прошедшие не сложную регистрацию
    Показать сообщения:    

    Красный остров через торрент
    Скачать бесплатно Красный остров
    Красный остров скачать торрент
    Красный остров смотреть онлайн
    Cкачать фильм Красный остров бесплатно
    Красный остров скачать торрент в хорошем качестве
    Красный остров смотреть онлайн бесплатно в хорошем качестве


    Вы не можете начинать темы
    Вы не можете отвечать на сообщения
    Вы не можете редактировать свои сообщения
    Вы не можете удалять свои сообщения
    Вы не можете голосовать в опросах
    Вы не можете прикреплять файлы к сообщениям
    Вы можете скачивать файлы