Ссылка на приватное зеркало нашего сайта всего за 1$. Внимание количество ограничено!!!

2 сезон

iTunes

1 сезон

1

2 сезон

2 сезон

iTunes

1 сезон

RePack

30

Ultimate

ВАЖНО

ИГРА 18+

pack

RePack

MK11
pack

Забери бонус

RePack

jed

!!Акция!!

Alien_Rage

RePack

fifa19

RePack

Assassins Creed: Odyssey

RePack

NEED FOR SPEED™ PAYBACK

4 сезон

9 сезон

Бесстыжие 9 сезон

Все сериалы

все сериалы на PB.wtf

RePack

FAR CRY 5
  

Yngwie Malmsteen - Blue Lightning - 2019/ WavPack/ image +.cue/ lossless/ Heavy Metal pb.wtf

Yngwie Malmsteen - Blue Lightning - 2019 через торрент pb.wtf

Размер: 492 MB | Добавлен: 1 год 7 мес. назад | Торрент скачан:14 раз
Скачать  

09-04-2019 10:07 Yngwie Malmsteen - Blue Lightning - 2019 Скачать торрент  


Yngwie Malmsteen - Blue Lightning


Год издания: 2019
Страна: USA | Sweden |
Жанр: Heavy Metal
Продолжительность: 00:57:50
Лейбл издания: MASCOT RECORDS
Страна-выпуска диска: EU
Номер по каталогу: M 7578 5
Формат: WavPack
Битрейт аудио: Lossless
Тип рипа: image +.cue
Наличие сканов в содержимом раздачи: да


01. Blue Lightning (4:51)
02. Foxey Lady (4:51)
03. Demon's Eye (3:46)
04. 1911 Strut (2:40)
05. Blue Jean Blues (6:59)
06. Purple Haze (3:54)
07. While My Guitar Gently Weeps (5:47)
08. Sun's Up Top's Down (4:02)
09. Peace, Please (3:44)
10. Pain It Black (4:07)
11. Smoke On The Water (3:19)
12. Forever Man (2:49)
13. Little Miss Lover (3:12)
14. Jumping Jack Flash (3:48)

Код:

Exact Audio Copy V1.3 from 2. September 2016

EAC extraction logfile from 27. March 2019, 15:00

YNGWIE MALMSTEEN / BLUE LIGHTNING

Used drive  : TSSTcorpBDDVDW SE-506BB   Adapter: 0  ID: 0

Read mode               : Secure
Utilize accurate stream : Yes
Defeat audio cache      : Yes
Make use of C2 pointers : No

Read offset correction                      : 6
Overread into Lead-In and Lead-Out          : No
Fill up missing offset samples with silence : Yes
Delete leading and trailing silent blocks   : No
Null samples used in CRC calculations       : Yes
Used interface                              : Installed external ASPI interface

Used output format              : User Defined Encoder
Selected bitrate                : 768 kBit/s
Quality                         : High
Add ID3 tag                     : No
Command line compressor         : C:\Misc\WavPack\wavpack.exe
Additional command line options : -h %source%

TOC of the extracted CD

     Track |   Start  |  Length  | Start sector | End sector
    ---------------------------------------------------------
        1  |  0:00.00 |  4:51.34 |         0    |    21858
        2  |  4:51.34 |  4:50.52 |     21859    |    43660
        3  |  9:42.11 |  3:46.33 |     43661    |    60643
        4  | 13:28.44 |  2:39.42 |     60644    |    72610
        5  | 16:08.11 |  6:59.16 |     72611    |   104051
        6  | 23:07.27 |  3:54.21 |    104052    |   121622
        7  | 27:01.48 |  5:46.74 |    121623    |   147646
        8  | 32:48.47 |  4:02.06 |    147647    |   165802
        9  | 36:50.53 |  3:43.66 |    165803    |   182593
       10  | 40:34.44 |  4:06.51 |    182594    |   201094
       11  | 44:41.20 |  3:18.48 |    201095    |   215992
       12  | 47:59.68 |  2:49.36 |    215993    |   228703
       13  | 50:49.29 |  3:12.16 |    228704    |   243119
       14  | 54:01.45 |  3:48.00 |    243120    |   260219

Range status and errors

Selected range

     Filename C:\EAC\YNGWIE MALMSTEEN - BLUE LIGHTNING.wav

     Peak level 100.0 %
     Extraction speed 2.0 X
     Range quality 100.0 %
     Test CRC 33A6AA16
     Copy CRC 33A6AA16
     Copy OK

No errors occurred

AccurateRip summary

Track  1  not present in database
Track  2  not present in database
Track  3  not present in database
Track  4  not present in database
Track  5  not present in database
Track  6  not present in database
Track  7  not present in database
Track  8  not present in database
Track  9  not present in database
Track 10  not present in database
Track 11  not present in database
Track 12  not present in database
Track 13  not present in database
Track 14  not present in database

None of the tracks are present in the AccurateRip database

End of status report

Код:

REM GENRE "Heavy Metal"
REM DATE 2019
REM DISCID BD0D8D0E
REM COMMENT "ExactAudioCopy v1.3"
CATALOG 0819873018841
PERFORMER "YNGWIE MALMSTEEN"
TITLE "BLUE LIGHTNING"
REM COMPOSER ""
FILE "YNGWIE MALMSTEEN - BLUE LIGHTNING.wv" WAVE
  TRACK 01 AUDIO
    TITLE "BLUE LIGHTNING"
    PERFORMER "YNGWIE MALMSTEEN"
    REM COMPOSER ""
    ISRC NLB931901101
    INDEX 01 00:00:00
  TRACK 02 AUDIO
    TITLE "FOXEY LADY"
    PERFORMER "YNGWIE MALMSTEEN"
    REM COMPOSER ""
    ISRC NLB931901102
    INDEX 00 04:50:38
    INDEX 01 04:51:34
  TRACK 03 AUDIO
    TITLE "DEMON'S EYE"
    PERFORMER "YNGWIE MALMSTEEN"
    REM COMPOSER ""
    ISRC NLB931901103
    INDEX 00 09:40:66
    INDEX 01 09:42:11
  TRACK 04 AUDIO
    TITLE "1911 STRUT"
    PERFORMER "YNGWIE MALMSTEEN"
    REM COMPOSER ""
    ISRC NLB931901104
    INDEX 00 13:26:67
    INDEX 01 13:28:44
  TRACK 05 AUDIO
    TITLE "BLUE JEAN BLUES"
    PERFORMER "YNGWIE MALMSTEEN"
    REM COMPOSER ""
    ISRC NLB931901105
    INDEX 00 16:07:17
    INDEX 01 16:08:11
  TRACK 06 AUDIO
    TITLE "PURPLE HAZE"
    PERFORMER "YNGWIE MALMSTEEN"
    REM COMPOSER ""
    ISRC NLB931901106
    INDEX 00 23:06:37
    INDEX 01 23:07:27
  TRACK 07 AUDIO
    TITLE "WHILE MY GUITAR GENTLY WEEPS"
    PERFORMER "YNGWIE MALMSTEEN"
    REM COMPOSER ""
    ISRC NLB931901107
    INDEX 01 27:01:48
  TRACK 08 AUDIO
    TITLE "SUN'S UP TOP'S DOWN"
    PERFORMER "YNGWIE MALMSTEEN"
    REM COMPOSER ""
    ISRC NLB931901108
    INDEX 00 32:47:24
    INDEX 01 32:48:47
  TRACK 09 AUDIO
    TITLE "PEACE, PLEASE"
    PERFORMER "YNGWIE MALMSTEEN"
    REM COMPOSER ""
    ISRC NLB931901109
    INDEX 00 36:49:23
    INDEX 01 36:50:53
  TRACK 10 AUDIO
    TITLE "PAINT IT BLACK"
    PERFORMER "YNGWIE MALMSTEEN"
    REM COMPOSER ""
    ISRC NLB931901110
    INDEX 00 40:33:29
    INDEX 01 40:34:44
  TRACK 11 AUDIO
    TITLE "SMOKE ON THE WATER"
    PERFORMER "YNGWIE MALMSTEEN"
    REM COMPOSER ""
    ISRC NLB931901111
    INDEX 00 44:39:42
    INDEX 01 44:41:20
  TRACK 12 AUDIO
    TITLE "FOREVER MAN"
    PERFORMER "YNGWIE MALMSTEEN"
    REM COMPOSER ""
    ISRC NLB931901112
    INDEX 00 47:58:54
    INDEX 01 47:59:68
  TRACK 13 AUDIO
    TITLE "LITTLE MISS LOVER"
    PERFORMER "YNGWIE MALMSTEEN"
    REM COMPOSER ""
    ISRC NLB931901113
    INDEX 00 50:48:40
    INDEX 01 50:49:29
  TRACK 14 AUDIO
    TITLE "JUMPING JACK FLASH"
    PERFORMER "YNGWIE MALMSTEEN"
    REM COMPOSER ""
    ISRC NLB931901114
    INDEX 00 53:59:63
    INDEX 01 54:01:45



pb.wtf



Скачать Yngwie Malmsteen - Blue Lightning - 2019 через торрент http://d.radikal.ru/d10/1904/07/ada2df8cad74.png Скачать фильм Yngwie Malmsteen - Blue Lightning - 2019через торрент бесплантно в хорошем качестве Трэклист Blue Lightning (4:51) Foxey Lady (4:51) Demon's Eye (3:46) 1911 Strut (2:40) Blue Jean Blues (6:59) ... 5 10 1
Торрент: Зарегистрирован [2019-04-09 10:07] · скачан: 14 раз
Статус: √ проверено
Размер: 492 MB
Как cкачать? Как скачать Yngwie Malmsteen - Blue Lightning - 2019 через торрент | qTorrent

28-11-2019 20:33  

Отключить всю рекламу на сайте

    Дорогой пользователь! Огромная просьба, поблагодарите релизера, оцените раздачу и оставьте свои комментарий, если Вы скачали Yngwie Malmsteen - Blue Lightning - 2019 через торрент бесплатно! Внесите свою лепту в развитие PiratBit!
    Комментировать посты могут только пользователи прошедшие не сложную регистрацию
    Показать сообщения:    

    Yngwie Malmsteen - Blue Lightning - 2019 через торрент
    Скачать бесплатно Yngwie Malmsteen - Blue Lightning - 2019
    Yngwie Malmsteen - Blue Lightning - 2019 скачать торрент
    Yngwie Malmsteen - Blue Lightning - 2019 смотреть онлайн
    Cкачать фильм Yngwie Malmsteen - Blue Lightning - 2019 бесплатно
    Yngwie Malmsteen - Blue Lightning - 2019 скачать торрент в хорошем качестве
    Yngwie Malmsteen - Blue Lightning - 2019 смотреть онлайн бесплатно в хорошем качестве


    Вы не можете начинать темы
    Вы не можете отвечать на сообщения
    Вы не можете редактировать свои сообщения
    Вы не можете удалять свои сообщения
    Вы не можете голосовать в опросах
    Вы не можете прикреплять файлы к сообщениям
    Вы можете скачивать файлы