Ссылка на приватное зеркало всего за 1$. Внимание количество ограничено!!!

OK

1+1

iTunes

мы

OK

1

WEB-DLRip

Джокер

Пифагор

Ведьмак / The Witcher сериал

iTunes

ПШазам

ОК

Оно 2

iTunes

30
pack

Вам бонус

ВАЖНО

!!Акция!!

Alien_RageХит недели

RePack

Resident Evil 21

ИГРА 18+

pack

RePack

jed

RePack

fifa19

RePack

Assassins Creed: Odyssey

RePack

NEED FOR SPEED™ PAYBACK

4 сезон

9 сезон

Бесстыжие 9 сезон

Все сериалы

все сериалы на PB.wtf

RePack

FAR CRY 5
  

Кисть любви / A Brush with Love (Питер ДеЛуис) [2019 г., Мелодрама, HDTVRip, Любительский (многоголосый) (Синема УС)] pb.wtf

Кисть любви через торрент pb.wtf

Размер: 1.32 GB | Добавлен: 9 мес. назад | Торрент скачан:11 раз
Скачать  

09-04-2019 10:44 Кисть любви Скачать торрент  

Кисть любви / A Brush with Love
Год выпуска: 2019
Страна: США / Two 4 The Money Media
Жанр: Мелодрама
Продолжительность: 01:23:48
Перевод: Любительский (многоголосый) (Синема УС)
Субтитры: Отсутствуют

Режиссер: Питер ДеЛуис

rating

В ролях: Ариэль Кеббел, Ник Бейтман, Мэттью Дж Доуден, Хилари Джардин, Адиль Зайди, Дэрил Шаттлворф, Кэтлин Дуборг, Бренда Кричлоу, Арран Хенн, Джеймс Ра

Описание: Джейми решает нарисовать карту желаний, которая реализует её мечты и в последствии узнает, что тайный мужчина мечты с её картины совсем другой человек.

Доп. информация: Присутствуют вставки текстовой рекламы

Качество: HDTVRip
Формат: AVI
Видео кодек: XviD
Аудио кодек: AC3
Видео: XviD, 720x400, ~1851 Kbps
Аудио#1: AC-3, 2 ch, 384 Kbps
скриншот   скриншот   скриншот   скриншот  

Общее
Полное имя : C:\_\Кисть любви\A Brush with Love 2019 HDTVRip.avi
Формат : AVI
Формат/Информация : Audio Video Interleave
Профиль формата : OpenDML
Размер файла : 1,32 Гбайт
Продолжительность : 1 ч. 23 м.
Общий поток : 2247 Кбит/сек

Видео
Идентификатор : 0
Формат : MPEG-4 Visual
Профиль формата : Advanced Simple@L5
Параметр BVOP формата : 2
Параметр QPel формата : Нет
Параметр GMC формата : Без точки перехода
Параметр матрицы формата : Default (H.263)
Идентификатор кодека : XVID
Идентификатор кодека/Подсказка : XviD
Продолжительность : 1 ч. 23 м.
Битрейт : 1851 Кбит/сек
Ширина : 720 пикселей
Высота : 400 пикселей
Соотношение сторон : 16:9
Частота кадров : 23,976 (24000/1001) кадра/сек
Цветовое пространство : YUV
Субдискретизация насыщенности : 4:2:0
Битовая глубина : 4 бит
Тип развёртки : Прогрессивная
Метод сжатия : С потерями
Бит/(Пиксели*Кадры) : 0.268
Размер потока : 1,08 Гбайт (82%)
Библиотека кодирования : XviD 1.2.1 (UTC 2008-12-04)

Аудио
Идентификатор : 1
Формат : AC-3
Формат/Информация : Audio Coding 3
Расширение режима : CM (complete main)
Параметр Endianness формата : Big
Идентификатор кодека : 2000
Продолжительность : 1 ч. 23 м.
Вид битрейта : Постоянный
Битрейт : 384 Кбит/сек
Каналы : 2 канала
Расположение каналов : Front: L R
Частота : 48,0 КГц
Частота кадров : 31,250 кадров/сек (1536 spf)
Метод сжатия : С потерями
Размер потока : 230 Мбайт (17%)
Выравнивание : Соединение по промежуткам
Продолжительность промежутка : 32 мс. (0,77 видеокадр)

pb.wtf



Скачать Кисть любви через торрент http://pic1.kartinco.top/images/12/tccn3.jpg Скачать фильм Кисть любви через торрент бесплантно в хорошем качестве Описание: Джейми решает нарисовать карту желаний, которая реализует её мечты и в последствии узнает, что тайный мужчина мечты с её картины ... 5 10 1
Торрент: Зарегистрирован [2019-04-09 10:44] · скачан: 11 раз
Статус: T временная
Размер: 1.32 GB
Как cкачать? Как скачать Кисть любви через торрент | qTorrent

28-11-2019 20:33  

Отключить всю рекламу на сайте

    Дорогой пользователь! Огромная просьба, поблагодарите релизера, оцените раздачу и оставьте свои комментарий, если Вы скачали Кисть любви через торрент бесплатно! Внесите свою лепту в развитие PiratBit!
    Комментировать посты могут только пользователи прошедшие не сложную регистрацию
    Показать сообщения:    

    Кисть любви через торрент
    Скачать бесплатно Кисть любви
    Кисть любви скачать торрент
    Кисть любви смотреть онлайн
    Cкачать фильм Кисть любви бесплатно
    Кисть любви скачать торрент в хорошем качестве
    Кисть любви смотреть онлайн бесплатно в хорошем качестве


    Вы не можете начинать темы
    Вы не можете отвечать на сообщения
    Вы не можете редактировать свои сообщения
    Вы не можете удалять свои сообщения
    Вы не можете голосовать в опросах
    Вы не можете прикреплять файлы к сообщениям
    Вы можете скачивать файлы