Ссылка на приватное зеркало нашего сайта всего за 1$. Внимание количество ограничено!!!

2 сезон

iTunes

1 сезон

1

2 сезон

2 сезон

iTunes

1 сезон

RePack

30

Ultimate

ВАЖНО

ИГРА 18+

pack

RePack

MK11
pack

Забери бонус

RePack

jed

!!Акция!!

Alien_Rage

RePack

fifa19

RePack

Assassins Creed: Odyssey

RePack

NEED FOR SPEED™ PAYBACK

4 сезон

9 сезон

Бесстыжие 9 сезон

Все сериалы

все сериалы на PB.wtf

RePack

FAR CRY 5
  

Охотники за головами / Bounty Hunters / Сезон: 1 / Серии: 1-6 из 6 (Уильям Синклер) [2017, боевик, комедия, приключения, HDTVRip 720p] [MVO] (Ozz) pb.wtf

Охотники за головами через торрент pb.wtf

Размер: 3.97 GB | Добавлен: 1 год 7 мес. назад | Торрент скачан:35 раз
Скачать  

09-04-2019 16:29 Охотники за головами Скачать торрент  

Bounty Hunters - First Season
Охотники за головами - Первый сезон
Год выхода: 2017
Страна
: Великобритания
Жанр
: боевик, комедия, приключения
Продолжительность: ~00:30:00
Перевод: Профессиональный (многоголосый закадровый) Ozz
Режиссер: Уильям Синклер
В ролях: Брэдли Джеймс, Глория Гараюа, Эльза Молльен, Джэк Уайтхолл, Рози Перес, Эмбер Агар, Док Браун, Джи-Род, Джексон Кай, Джози Кидд и др.
Описание: Действие сериала разворачивается в тот момент, когда папа Барнаби Уолкера попадает в довольно подозрительную аварию и теперь сыну приходится взяться за управление семейным антикварным магазином. В это же время с Ближнего Востока в магазинчик Уолкеров поступает некий древний предмет, что запускает цепь странных и опасных для жизни событий и в итоге приводит Барнаби к знакомству с Ритой Моралес. У Риты и своих проблем достаточно, ведь она — охотница за головами, убившая главаря наркокартеля и теперь за ее собственную голову объявлена награда.

rating Роли озвучивают: | Алексей Серёгин, Маргарита Корш, Иван Кузнецов и Алексей Никитин |
Автор перевода: | Василий Мерзляков |
Подготовлено: Ozz
Качество: HDTVRip 720p
Формат: mkv
Видео кодек: x264
Аудио кодек: AC3
Видео: 1280x640 at 25 fps, AVC, 3000 kbps avg, 0.101 b/pixel
Аудио #1: Russian 48.0 KHz, AC3 , 2 channels, 192 Kbps |Ozz|
Аудио #2: English 48.0 KHz, AC3 , 6 channels, 384 Kbps |Original|
Субтитры: Russian (srt)
Реклама: Нет
Общее
Уникальный идентификатор : 243803708914794909251338945012888530373 (0xB76AE2E82C181B6E85A1514ECAC86DC5)
Полное имя : H:\Bounty.Hunters.S01.720p.HDTVRip.Rus.Eng.Ozz\Bounty.Hunters.S01E02.720p.HDTVRip.Rus.Eng.Ozz.mkv
Формат : Matroska
Версия формата : Version 4 / Version 2
Размер файла : 573 Мбайт
Продолжительность : 27 м.
Общий поток : 2956 Кбит/сек
Дата кодирования : UTC 2017-11-11 18:53:15
Программа кодирования : mkvmerge v6.3.0 ('You can't stop me!') built on Jun 28 2013 20:09:41
Библиотека кодирования : libebml v1.3.0 + libmatroska v1.4.0

Видео
Идентификатор : 1
Формат : AVC
Формат/Информация : Advanced Video Codec
Профиль формата : High@L4.1
Параметр CABAC формата : Да
Параметр ReFrames формата : 5 кадров
Идентификатор кодека : V_MPEG4/ISO/AVC
Продолжительность : 27 м.
Битрейт : 2321 Кбит/сек
Ширина : 1280 пикселей
Высота : 680 пикселей
Соотношение сторон : 1,882
Режим частоты кадров : Постоянный
Частота кадров : 25,000 кадров/сек
Цветовое пространство : YUV
Субдискретизация насыщенности : 4:2:0
Битовая глубина : 8 бит
Тип развёртки : Прогрессивная
Бит/(Пиксели*Кадры) : 0.107
Размер потока : 450 Мбайт (79%)
Библиотека кодирования : x264 core 152 r2851 ba24899
Настройки программы : cabac=1 / ref=5 / deblock=1:0:0 / analyse=0x3:0x113 / me=hex / subme=8 / psy=1 / psy_rd=1.00:0.00 / mixed_ref=1 / me_range=16 / chroma_me=1 / trellis=2 / 8x8dct=1 / cqm=0 / deadzone=21,11 / fast_pskip=1 / chroma_qp_offset=-2 / threads=12 / lookahead_threads=2 / sliced_threads=0 / nr=0 / decimate=1 / interlaced=0 / bluray_compat=0 / constrained_intra=0 / bframes=3 / b_pyramid=2 / b_adapt=1 / b_bias=0 / direct=3 / weightb=1 / open_gop=0 / weightp=2 / keyint=250 / keyint_min=25 / scenecut=40 / intra_refresh=0 / rc_lookahead=50 / rc=crf / mbtree=1 / crf=18.0 / qcomp=0.60 / qpmin=0 / qpmax=69 / qpstep=4 / ip_ratio=1.40 / aq=1:1.00
Язык : English
Default : Да
Forced : Нет
Коэффициенты матрицы : BT.709

Аудио #1
Идентификатор : 2
Формат : AC-3
Формат/Информация : Audio Coding 3
Расширение режима : CM (complete main)
Параметр Endianness формата : Big
Идентификатор кодека : A_AC3
Продолжительность : 27 м.
Вид битрейта : Постоянный
Битрейт : 192 Кбит/сек
Каналы : 2 канала
Расположение каналов : Front: L R
Частота : 48,0 КГц
Битовая глубина : 16 бит
Метод сжатия : С потерями
Размер потока : 37,2 Мбайт (6%)
Заголовок : MVO Ozz-tv
Язык : Russian
Default : Да
Forced : Нет

Аудио #2
Идентификатор : 3
Формат : AC-3
Формат/Информация : Audio Coding 3
Расширение режима : CM (complete main)
Параметр Endianness формата : Big
Идентификатор кодека : A_AC3
Продолжительность : 27 м.
Вид битрейта : Постоянный
Битрейт : 384 Кбит/сек
Каналы : 6 каналов
Расположение каналов : Front: L C R, Side: L R, LFE
Частота : 48,0 КГц
Битовая глубина : 16 бит
Метод сжатия : С потерями
Размер потока : 74,4 Мбайт (13%)
Язык : English
Default : Нет
Forced : Нет

Текст
Идентификатор : 4
Формат : UTF-8
Идентификатор кодека : S_TEXT/UTF8
Идентификатор кодека/Информация : UTF-8 Plain Text
Заголовок : Василий Мерзляков
Язык : Russian
Default : Нет
Forced : Нет
скриншот  скриншот  скриншот  
Внимание! Раздача ведётся путём добавления новых серий; при каждом добавлении создаётся новый торрент. Чтобы начать докачку новой серии, пользователям необходимо сделать следующее:
(1) остановить скачивание,
(2) удалить старый торрент у себя из клиента (старые серии удалять не надо),
(3) скачать новый торрент и запустить его у себя в клиенте вместо старого, при этом указать клиенту путь в старую папку куда и должно происходить скачивание новых серий.

Ваш клиент при этом должен произвести хеширование (проверку) старой папки (если не производит сам - помогите ему сделать это), и будет докачивать только те серии которых у вас ещё нет. Старые серии при этом не удаляются, а продолжают раздаваться!

Eсли вы уже удалили старые серии, то предотвратить повторную закачку старых серий можно, отжав галочку в соответствующих местах при запуске нового торрента. По возможности, желательно не удалять старые серии как можно дольше чтобы релизёр не столько продолжал раздавать старые серии, а смог сконцентрироваться на новых.

pb.wtf



Скачать Охотники за головами через торрент http://i1.imageban.ru/out/2017/11/05/0ef4dd3536962ac26851e88b04cec7f8.jpg Скачать фильм Охотники за головами через торрент бесплантно в хорошем качестве Описание: Действие сериала разворачивается в тот момент, когда папа Барнаби Уолкера попадает в довольно подозрительную аварию и теперь сыну ... 5 10 1
Торрент: Зарегистрирован [2019-04-09 16:29] · скачан: 35 раз
Статус: √ проверено
Размер: 3.97 GB
Как cкачать? Как скачать Охотники за головами через торрент | qTorrent

28-11-2019 20:33  

Отключить всю рекламу на сайте

    Дорогой пользователь! Огромная просьба, поблагодарите релизера, оцените раздачу и оставьте свои комментарий, если Вы скачали Охотники за головами через торрент бесплатно! Внесите свою лепту в развитие PiratBit!
    Комментировать посты могут только пользователи прошедшие не сложную регистрацию
    Показать сообщения:    

    Охотники за головами через торрент
    Скачать бесплатно Охотники за головами
    Охотники за головами скачать торрент
    Охотники за головами смотреть онлайн
    Cкачать фильм Охотники за головами бесплатно
    Охотники за головами скачать торрент в хорошем качестве
    Охотники за головами смотреть онлайн бесплатно в хорошем качестве


    Вы не можете начинать темы
    Вы не можете отвечать на сообщения
    Вы не можете редактировать свои сообщения
    Вы не можете удалять свои сообщения
    Вы не можете голосовать в опросах
    Вы не можете прикреплять файлы к сообщениям
    Вы можете скачивать файлы