новый адрес
Мега распродажа FORZA HORIZON 4 ULTIMATE+ВСЕ DLC+ОНЛАЙН всего за 499р. 349 руб. (супер цена). Внимание количество ограничено!!!

iTunes

1+1

iTunes

мы

iTunes

1

iTunes

Чернобыль

iTunes

Ральф против интернета

Лицензия

ПШазам

Лицензия

Игра престолов

Лицензия

30
pack

ВАЖНО

!!Акция!!

Alien_RageХит недели

RePack

Resident Evil 21

ИГРА 18+

pack

RePack

Metro:Exodus

!!Акция!!

Alien_Rage

RePack

fifa19

RePack

Assassins Creed: Odyssey

RePack

NEED FOR SPEED™ PAYBACK

3 сезон

9 сезон

Бесстыжие 9 сезон

Все сериалы

все сериалы на PB.wtf

RePack

FAR CRY 5
Ребята, катастрофически не хватает 1900р. для оплаты серверов за Октябрь (всвязи с блокировками трафик упал в 3 раза), 1-2р., выручайте.
  

Ниагара (Александр Визирь) [1991, Драма, TVRip-AVC] pb.wtf

Ниагара через торрент pb.wtf

Размер: 1.79 GB | Добавлен: 7 мес. назад | Торрент скачан:5 раз
Скачать  

09-04-2019 18:28 Ниагара Скачать торрент  

Ниагара
Год выпуска: 1991
Страна: СССР
Жанр: Драма
Продолжительность: 01:29:54
Субтитры: Отсутствуют

Режиссер: Александр Визирь

rating

В ролях: Евдокия Германова, Юрий Евсюков, Марина Сахарова, Елена Драныш, Эрнст Романов, Леонид Бакштаев, Валерий Николаев, Евгений Пашин, Нина Шаролапова, Елена Чекан, Валентина Масенко

Описание: Ниагара работает натурщицей в художественном училище, она умело скрывает свою неустроенность и одиночество за бравадой и куражом. Полюбив юного студента, она понимает, что сама уже не так молода и красива. Много обид и унижений испытывает Ниагара из-за своей странной любви, но в финале все же находит счастье в лице смешного, несовременного, но искреннего и бескорыстного случайного знакомого.
Евдокия Германова получила Приз жюри за лучшую женскую роль, а фильм был удостоен Приза зрительских симпатий на Первом Всеукраинском кинофестивале "Молодость" (Киев, 1991).

Качество: TVRip-AVC
Формат: MKV

Видео: AVC, 698x548@744x548 , 25,0fps, 2588 Kbps
Аудио: AC3 , 2 ch , 48 kHz , 256 kbps
скриншот   скриншот   скриншот   скриншот   скриншот   скриншот   скриншот   скриншот  
General
Unique ID : 129773117961491312542200840138715307844 (0x61A164B4EF6EB3B822105946707C1F44)
Complete name : S:FILMSНиагара (1991) TVRip-AVC - KORSAR.mkv
Format : Matroska
Format version : Version 4 / Version 2
File size : 1.79 GiB
Duration : 1 h 29 min
Overall bit rate : 2 846 kb/s
Movie name : Ниагара (1991)_rip_by_Cthulhu
Encoded date : UTC 2019-04-02 19:49:24
Writing application : mkvmerge v28.2.0 ('The Awakening') 64-bit
Writing library : libebml v1.3.6 + libmatroska v1.4.9
Cover : Yes
Attachments : cover4.jpg

Video
ID : 1
Format : AVC
Format/Info : Advanced Video Codec
Format profile : High@L4.1
Format settings, CABAC : Yes
Format settings, RefFrames : 15 frames
Codec ID : V_MPEG4/ISO/AVC
Duration : 1 h 29 min
Bit rate : 2 588 kb/s
Width : 698 pixels
Height : 548 pixels
Display aspect ratio : 4:3
Original display aspect ratio : 4:3
Frame rate mode : Constant
Frame rate : 25.000 FPS
Color space : YUV
Chroma subsampling : 4:2:0
Bit depth : 8 bits
Scan type : Progressive
Bits/(Pixel*Frame) : 0.271
Stream size : 1.63 GiB (91%)
Writing library : x264 core 152 r2851kMod ba24899
Encoding settings : cabac=1 / ref=15 / deblock=1:-2:-1 / analyse=0x3:0x133 / me=umh / subme=11 / psy=1 / fade_compensate=0.00 / psy_rd=1.00:0.03 / mixed_ref=1 / me_range=48 / chroma_me=1 / trellis=2 / 8x8dct=1 / cqm=0 / deadzone=21,11 / fast_pskip=1 / chroma_qp_offset=-3 / threads=17 / lookahead_threads=4 / sliced_threads=0 / nr=0 / decimate=1 / interlaced=0 / bluray_compat=0 / constrained_intra=0 / bframes=12 / b_pyramid=2 / b_adapt=2 / b_bias=0 / direct=3 / weightb=1 / open_gop=0 / weightp=2 / keyint=250 / keyint_min=25 / scenecut=40 / intra_refresh=0 / rc_lookahead=60 / rc=crf / mbtree=0 / crf=18.0000 / qcomp=0.60 / qpmin=0 / qpmax=39 / qpstep=4 / vbv_maxrate=50000 / vbv_bufsize=62500 / crf_max=0.0 / nal_hrd=none / filler=0 / ip_ratio=1.40 / pb_ratio=1.30 / aq=2:1.00
Language : Russian
Default : Yes
Forced : No
Color range : Limited
Color primaries : BT.601 PAL
Transfer characteristics : BT.470 System B, BT.470 System G
Matrix coefficients : BT.601

Audio
ID : 2
Format : AC-3
Format/Info : Audio Coding 3
Mode extension : CM (complete main)
Format settings, Endianness : Big
Codec ID : A_AC3
Duration : 1 h 29 min
Bit rate mode : Constant
Bit rate : 256 kb/s
Channel(s) : 2 channels
Channel positions : Front: L R
Sampling rate : 48.0 kHz
Frame rate : 31.250 FPS (1536 spf)
Compression mode : Lossy
Stream size : 165 MiB (9%)
Language : Russian
Default : Yes
Forced : No
pb.wtf



Скачать Ниагара через торрент http://pic1.kartinco.top/images/12/ow74k.jpg Скачать фильм Ниагара через торрент бесплантно в хорошем качестве Описание: Ниагара работает натурщицей в художественном училище, она умело скрывает свою неустроенность и одиночество за бравадой и куражом. ... 10 10 1
Торрент: Зарегистрирован [2019-04-09 18:28] · скачан: 5 раз
Статус: √ проверено
Размер: 1.79 GB
Как cкачать? Как скачать Ниагара через торрент | qTorrent


>> Регистрируемся здесь <<






Отзывы и комментарии о схеме читаем и пишем здесь: ---> Отзывы и комментарии о схеме

Новые благодарочки в телеграм довольных пользователей:
скриншот   скриншот   скриншот   скриншот   скриншот
    Дорогой пользователь! Огромная просьба, поблагодарите релизера, оцените раздачу и оставьте свои комментарий, если Вы скачали Ниагара через торрент бесплатно! Внесите свою лепту в развитие PiratBit!
    Комментировать посты могут только пользователи прошедшие не сложную регистрацию
    Показать сообщения:    

    Ниагара через торрент
    Скачать бесплатно Ниагара
    Ниагара скачать торрент
    Ниагара смотреть онлайн
    Cкачать фильм Ниагара бесплатно
    Ниагара скачать торрент в хорошем качестве
    Ниагара смотреть онлайн бесплатно в хорошем качестве


    Вы не можете начинать темы
    Вы не можете отвечать на сообщения
    Вы не можете редактировать свои сообщения
    Вы не можете удалять свои сообщения
    Вы не можете голосовать в опросах
    Вы не можете прикреплять файлы к сообщениям
    Вы можете скачивать файлы