Ссылка на приватное зеркало нашего сайта всего за 1$. Внимание количество ограничено!!!

2 сезон

iTunes

1 сезон

1

2 сезон

2 сезон

iTunes

1 сезон

RePack

30

Ultimate

ВАЖНО

ИГРА 18+

pack

RePack

MK11
pack

Забери бонус

RePack

jed

!!Акция!!

Alien_Rage

RePack

fifa19

RePack

Assassins Creed: Odyssey

RePack

NEED FOR SPEED™ PAYBACK

4 сезон

9 сезон

Бесстыжие 9 сезон

Все сериалы

все сериалы на PB.wtf

RePack

FAR CRY 5
  

Тик / The Tick / Сезон: 2 / Серии: 1-10 из 10 (Уолли Пфистер) [2019, Комедия, фантастика, WEBRip 1080p] MVO [IdeaFilm] pb.wtf

Тик через торрент pb.wtf

Размер: 14.31 GB | Добавлен: 1 год 7 мес. назад | Торрент скачан:11 раз
Скачать  

09-04-2019 20:42 Тик Скачать торрент  

Тик / The Tick Год выпуска: 2019
Страна: США
Жанр: Комедия, пародия, фантастика
Продолжительность: ~ 00:30:00 серия
Перевод: Любительский (многоголосый) | IdeaFilm
Субтитры: отсутствуют

Режиссер: Уолли Пфистер

rating

В ролях:

Питер Серафинович, Гриффин Ньюман, Вэлори Керри, Брендан Хайнс, Джеки Эрл Хейли

Описание:

Тик — борец с преступностью. Он является самым честным супергероем среди своих собратьев. Он прыгает по крышам небоскребов. В нем сила природы, он бесстрашен, не признает поражений, его не возможно остановить (в большинстве случаев), он не сокрушим, полон достоинства и обаяния, и у него золотое сердце.

Качество: WEBRip 1080p
Формат: MKV

Видео: 1920x960 (2,000), 23,976 fps, AVC (х264), Main@L4.1, ~6682 kbps avg, 0.151 bit/pixel
Аудио#1 Rus: :48 kHz, AC3 Dolby Digital, 3/2 (L,C,R,l,r) + LFE ch, ~384 kbps
Аудио#2 Eng: :48 kHz, AC3 Dolby Digital, 3/2 (L,C,R,l,r) + LFE ch, ~384 kbps
скриншот  скриншот  скриншот  скриншот  

Общее
Уникальный идентификатор : 2963584042808808378647121063765964600 (0x23AC3F9738AF7E2E8F0921BD7197738)
Полное имя : F:\IDEAFILM\The.Tick.S02.WEBRip.1080p\The.Tick.S02E01.WEBRip.1080p.IdeaFilm.mkv
Формат : Matroska
Версия формата : Version 4
Размер файла : 1,39 Гбайт
Продолжительность : 26 м. 49 с.
Общий поток : 7442 Кбит/сек
Дата кодирования : UTC 2019-04-09 10:54:53
Программа кодирования : mkvmerge v25.0.0 (''Prog Noir'') 64-bit
Библиотека кодирования : libebml v1.3.6 + libmatroska v1.4.9

Видео
Идентификатор : 1
Формат : AVC
Формат/Информация : Advanced Video Codec
Профиль формата : Main@L4.1
Настройки формата : CABAC / 4 Ref Frames
Параметр CABAC формата : Да
Параметр RefFrames формата : 4 кадра
Идентификатор кодека : V_MPEG4/ISO/AVC
Продолжительность : 26 м. 49 с.
Битрейт : 6682 Кбит/сек
Ширина : 1920 пикселей
Высота : 960 пикселей
Соотношение сторон : 2,000
Режим частоты кадров : Постоянный
Частота кадров : 23,976 (24000/1001) кадра/сек
Цветовое пространство : YUV
Субдискретизация насыщенности : 4:2:0
Битовая глубина : 8 бит
Тип развёртки : Прогрессивная
Бит/(Пиксели*Кадры) : 0.151
Размер потока : 1,25 Гбайт (90%)
Язык : English
Default : Да
Forced : Нет
Цветовой диапазон : Limited
Основные цвета : BT.709
Характеристики трансфера : BT.709
Коэффициенты матрицы : BT.709

Аудио #1
Идентификатор : 2
Формат : AC-3
Формат/Информация : Audio Coding 3
Коммерческое название : Dolby Digital
Идентификатор кодека : A_AC3
Продолжительность : 26 м. 49 с.
Вид битрейта : Постоянный
Битрейт : 384 Кбит/сек
Каналы : 6 каналов
Channel layout : L R C LFE Ls Rs
Частота : 48,0 КГц
Частота кадров : 31,250 кадров/сек (1536 SPF)
Битовая глубина : 16 бит
Метод сжатия : С потерями
Размер потока : 73,7 Мбайт (5%)
Заголовок : IdeaFilm
Язык : Russian
ServiceKind/String : Complete Main
Default : Да
Forced : Нет

Аудио #2
Идентификатор : 3
Формат : AC-3
Формат/Информация : Audio Coding 3
Идентификатор кодека : A_AC3
Продолжительность : 26 м. 9 с.
Битрейт : 384 Кбит/сек
Каналы : 6 каналов
Частота : 48,0 КГц
Частота кадров : 31,250 кадров/сек (1536 SPF)
Метод сжатия : С потерями
Размер потока : 71,9 Мбайт (5%)
Язык : English
Default : Нет
Forced : Нет
Ссылка на пре

pb.wtf



Скачать Тик через торрент http://img16.lostpic.net/2019/04/09/991d9884be26c433271eb1e7a8d53894.jpg Скачать фильм Тик через торрент бесплантно в хорошем качестве Описание: Тик — борец с преступностью. Он является самым честным супергероем среди своих собратьев. Он прыгает по крышам небоскребов. В нем ... 10 10 2
Торрент: Зарегистрирован [2019-04-09 20:42] · скачан: 11 раз
Статус: √ проверено
Размер: 14.31 GB
Как cкачать? Как скачать Тик через торрент | qTorrent

% Раздел Тема Автор DL S | L
Зарубежные сериалы [ 9.8 GB ] Тик / The Tick / Сезон: 2 / Серии: 1-10 из 10 [2019 WEBRip 720p] MVO [IdeaFilm] bober100 Скачать
1 | 0

28-11-2019 20:33  

Отключить всю рекламу на сайте

    Дорогой пользователь! Огромная просьба, поблагодарите релизера, оцените раздачу и оставьте свои комментарий, если Вы скачали Тик через торрент бесплатно! Внесите свою лепту в развитие PiratBit!
    Комментировать посты могут только пользователи прошедшие не сложную регистрацию
    Показать сообщения:    

    Тик через торрент
    Скачать бесплатно Тик
    Тик скачать торрент
    Тик смотреть онлайн
    Cкачать фильм Тик бесплатно
    Тик скачать торрент в хорошем качестве
    Тик смотреть онлайн бесплатно в хорошем качестве


    Вы не можете начинать темы
    Вы не можете отвечать на сообщения
    Вы не можете редактировать свои сообщения
    Вы не можете удалять свои сообщения
    Вы не можете голосовать в опросах
    Вы не можете прикреплять файлы к сообщениям
    Вы можете скачивать файлы