Ссылка на приватное зеркало всего за 1$. Внимание количество ограничено!!!

OK

1+1

iTunes

мы

OK

1

WEB-DLRip

Джокер

Пифагор

Ведьмак / The Witcher сериал

iTunes

ПШазам

ОК

Оно 2

iTunes

30
pack

Вам бонус

ВАЖНО

!!Акция!!

Alien_RageХит недели

RePack

Resident Evil 21

ИГРА 18+

pack

RePack

jed

RePack

fifa19

RePack

Assassins Creed: Odyssey

RePack

NEED FOR SPEED™ PAYBACK

4 сезон

9 сезон

Бесстыжие 9 сезон

Все сериалы

все сериалы на PB.wtf

RePack

FAR CRY 5
  

Наши невзгоды / Nos batailles (Гийом Сенес) [2018, драма, WEB-DL 720p] MVO ["Синема УС"] pb.wtf

Наши невзгоды через торрент pb.wtf

Размер: 3.79 GB | Добавлен: 9 мес. назад | Торрент скачан:9 раз
Скачать  

10-04-2019 04:45 Наши невзгоды Скачать торрент  

Наши невзгоды / Nos bataillesГод выпуска: 2018
Страна: Бельгия, Франция
Жанр: драма
Продолжительность: 01:35:37
Перевод: Любительский (многоголосый) | "Синема УС"
Субтитры: отсутствуют

Режиссер: Гийом Сенес

rating

В ролях: Ромен Дюрис, Базили Грюнбергер, Лена Гирард Восс, Люси Дебай, Лорэ Кэлами, Доминик Валадье, Летиция Дош, Сара Лепикар, Крис Куппенс, Седрик Виейра

Описание: Оливье вместе со своими сотрудниками борется за справедливость. Но в какой-то момент жена уходит от него и он остается один с двумя детьми. Сейчас у него новые обязанности и новые проблемы. Сможет ли он обрести равновесие?

Качество: WEB-DL 720p
Формат: MKV

Видео: h.264,5 294 Кбит/с, 1280x536
Аудио: Русский, (AC3, 2 ch, 384 Кбит/с)
скриншот  скриншот  скриншот  

Общее
Уникальный идентификатор : 199907540838382985310552261835329275266 (0x9664CABA0537088B815A810B8C868582)
Полное имя : D:\Nos.Batailles.2018.P.WEB-DL.72Op.mkv
Формат : Matroska
Версия формата : Version 2
Размер файла : 3,79 Гбайт
Продолжительность : 1 ч. 35 м.
Режим общего битрейта : Переменный
Общий поток : 5680 Кбит/сек
Дата кодирования : UTC 2019-04-09 17:52:05
Программа кодирования : mkvmerge v8.3.0 ('Over the Horizon') 64bit
Библиотека кодирования : libebml v1.3.1 + libmatroska v1.4.2

Видео
Идентификатор : 1
Формат : AVC
Формат/Информация : Advanced Video Codec
Профиль формата : High@L4.1
Параметр CABAC формата : Да
Параметр RefFrames формата : 4 кадра
Идентификатор кодека : V_MPEG4/ISO/AVC
Продолжительность : 1 ч. 35 м.
Вид битрейта : Переменный
Битрейт : 5294 Кбит/сек
Максимальный битрейт : 6000 Кбит/сек
Ширина : 1280 пикселей
Высота : 536 пикселей
Соотношение сторон : 2,40:1
Режим частоты кадров : Постоянный
Частота кадров : 23,976 (24000/1001) кадра/сек
Стандарт вещания : Component
Цветовое пространство : YUV
Субдискретизация насыщенности : 4:2:0
Битовая глубина : 8 бит
Тип развёртки : Прогрессивная
Бит/(Пиксели*Кадры) : 0.315
Размер потока : 3,46 Гбайт (91%)
Default : Да
Forced : Нет
Цветовой диапазон : Limited
Основные цвета : BT.709
Характеристики трансфера : BT.709
Коэффициенты матрицы : BT.709

Аудио
Идентификатор : 2
Формат : AC-3
Формат/Информация : Audio Coding 3
Расширение режима : CM (complete main)
Параметр Endianness формата : Big
Идентификатор кодека : A_AC3
Продолжительность : 1 ч. 35 м.
Вид битрейта : Постоянный
Битрейт : 384 Кбит/сек
Каналы : 2 канала
Расположение каналов : Front: L R
Частота : 48,0 КГц
Частота кадров : 31,250 кадров/сек (1536 spf)
Метод сжатия : С потерями
Размер потока : 263 Мбайт (7%)
Default : Да
Forced : Нет

pb.wtf



Скачать Наши невзгоды через торрент https://d.radikal.ru/d19/1904/41/282f5759c8ae.jpg Скачать фильм Наши невзгоды через торрент бесплантно в хорошем качестве Описание: Оливье вместе со своими сотрудниками борется за справедливость. Но в какой-то момент жена уходит от него и он остается один с ... 7 10 3
Торрент: Зарегистрирован [2019-04-10 04:45] · скачан: 9 раз
Статус: T временная
Размер: 3.79 GB
Как cкачать? Как скачать Наши невзгоды через торрент | qTorrent

% Раздел Тема Автор DL S | L
T Фильмы (мультфильмы) cо спонсором показа (Новинки AVI/MKV) [ 1.37 GB ] Наши невзгоды / Nos batailles [2018 WEB-DLRip] MVO ["Синема УС"] bober100 Скачать
1 | 0

28-11-2019 20:33  

Отключить всю рекламу на сайте


    Дорогой пользователь! Огромная просьба, поблагодарите релизера, оцените раздачу и оставьте свои комментарий, если Вы скачали Наши невзгоды через торрент бесплатно! Внесите свою лепту в развитие PiratBit!
    Комментировать посты могут только пользователи прошедшие не сложную регистрацию
    Показать сообщения:    

    Наши невзгоды через торрент
    Скачать бесплатно Наши невзгоды
    Наши невзгоды скачать торрент
    Наши невзгоды смотреть онлайн
    Cкачать фильм Наши невзгоды бесплатно
    Наши невзгоды скачать торрент в хорошем качестве
    Наши невзгоды смотреть онлайн бесплатно в хорошем качестве


    Вы не можете начинать темы
    Вы не можете отвечать на сообщения
    Вы не можете редактировать свои сообщения
    Вы не можете удалять свои сообщения
    Вы не можете голосовать в опросах
    Вы не можете прикреплять файлы к сообщениям
    Вы можете скачивать файлы