Ссылка на приватное зеркало нашего сайта всего за 1$. Внимание количество ограничено!!!

2 сезон

iTunes

iTunes

1

iTunes

iTunes

iTunes

WEBRip

iTunes

30
pack

Вам бонус

ВАЖНО

!!Акция!!

Alien_RageХит недели

RePack

Horizon Zero Dawn

ИГРА 18+

pack

RePack

jed

!!Акция!!

Alien_Rage

RePack

fifa19

RePack

Assassins Creed: Odyssey

RePack

NEED FOR SPEED™ PAYBACK

4 сезон

9 сезон

Бесстыжие 9 сезон

Все сериалы

все сериалы на PB.wtf

RePack

FAR CRY 5
  

Леденящие душу истории - антология / New Chilling Tales - the Anthology (Грег Грин) [2019, Ужасы, WEB-DL 720p] MVO ["Синема УС"] pb.wtf

Леденящие душу истории - антология через торрент pb.wtf

Размер: 2.5 GB | Добавлен: 1 год 5 мес. назад | Торрент скачан:31 раз
Скачать  

10-04-2019 05:02 Леденящие душу истории - антология Скачать торрент  

Леденящие душу истории - антология / New Chilling Tales - the Anthology Год выпуска: 2019
Страна: США
Жанр: Ужасы
Продолжительность: 01:04:54
Перевод: Любительский (многоголосый) | "Синема УС"
Субтитры: отсутствуют

Режиссер: Грег Грин

rating

В ролях:

Даррен Э. Берроуз, Джэйн Мэрроу, Мартин Джарвис, Тейт С. МакКалло

Описание:

Вашему вниманию предлагается собрание классических готических историй. Эдгар Алан По, Шарлотта Перкинс Гилман, Уильям Уаймарк Джейкобс и Амброз Бирс собрались вместе, чтобы пощекотать вам нервы. Готовы к бессонной ночи?

Качество: WEB-DL 720p
Формат: MKV

Видео: 5 121 Кбит/с, 1280x720
Аудио#1: Русский, (AC3, 2 ch, 384 Кбит/с)
скриншот  скриншот  скриншот  

Общее
Уникальный идентификатор : 182308904886949764541792096144428874798 (0x89276AFBD2D2C44EA3490BB70D77BC2E)
Полное имя : D:\New.Chilling.Tales.The.Anthology.2o19.P.WEB-DL.72Op.mkv
Формат : Matroska
Версия формата : Version 2
Размер файла : 2,50 Гбайт
Продолжительность : 1 ч. 4 м.
Режим общего битрейта : Переменный
Общий поток : 5507 Кбит/сек
Дата кодирования : UTC 2019-04-09 19:28:32
Программа кодирования : mkvmerge v8.3.0 ('Over the Horizon') 64bit
Библиотека кодирования : libebml v1.3.1 + libmatroska v1.4.2

Видео
Идентификатор : 1
Формат : AVC
Формат/Информация : Advanced Video Codec
Профиль формата : High@L4.1
Параметр CABAC формата : Да
Параметр RefFrames формата : 4 кадра
Идентификатор кодека : V_MPEG4/ISO/AVC
Продолжительность : 1 ч. 4 м.
Вид битрейта : Переменный
Битрейт : 5121 Кбит/сек
Максимальный битрейт : 6000 Кбит/сек
Ширина : 1280 пикселей
Высота : 720 пикселей
Соотношение сторон : 16:9
Режим частоты кадров : Постоянный
Частота кадров : 23,976 (24000/1001) кадра/сек
Стандарт вещания : Component
Цветовое пространство : YUV
Субдискретизация насыщенности : 4:2:0
Битовая глубина : 8 бит
Тип развёртки : Прогрессивная
Бит/(Пиксели*Кадры) : 0.227
Размер потока : 2,27 Гбайт (91%)
Default : Да
Forced : Нет
Цветовой диапазон : Limited
Основные цвета : BT.709
Характеристики трансфера : BT.709
Коэффициенты матрицы : BT.709

Аудио
Идентификатор : 2
Формат : AC-3
Формат/Информация : Audio Coding 3
Расширение режима : CM (complete main)
Параметр Endianness формата : Big
Идентификатор кодека : A_AC3
Продолжительность : 1 ч. 4 м.
Вид битрейта : Постоянный
Битрейт : 384 Кбит/сек
Каналы : 2 канала
Расположение каналов : Front: L R
Частота : 48,0 КГц
Частота кадров : 31,250 кадров/сек (1536 spf)
Метод сжатия : С потерями
Размер потока : 178 Мбайт (7%)
Default : Да
Forced : Нет

pb.wtf



Скачать Леденящие душу истории - антология через торрент https://d.radikal.ru/d03/1904/df/4e6d1958f3b5.jpg Скачать фильм Леденящие душу истории - антология через торрент бесплантно в хорошем качестве Описание: Вашему вниманию предлагается собрание классических готических историй. Эдгар Алан По, Шарлотта Перкинс Гилман, Уильям Уаймарк ... 10 10 2
Торрент: Зарегистрирован [2019-04-10 05:02] · скачан: 31 раз
Статус: T временная
Размер: 2.5 GB
Как cкачать? Как скачать Леденящие душу истории - антология через торрент | qTorrent

% Раздел Тема Автор DL S | L
T Фильмы (мультфильмы) cо спонсором показа (Новинки AVI/MKV) [ 1.37 GB ] Леденящие душу истории - антология / New Chilling Tales - the Anthology [2019 WEB-DLRip] MVO ["Синема УС"] bober100 Скачать
1 | 0

28-11-2019 20:33  

Отключить всю рекламу на сайте

    Дорогой пользователь! Огромная просьба, поблагодарите релизера, оцените раздачу и оставьте свои комментарий, если Вы скачали Леденящие душу истории - антология через торрент бесплатно! Внесите свою лепту в развитие PiratBit!
    Комментировать посты могут только пользователи прошедшие не сложную регистрацию
    Показать сообщения:    

    Леденящие душу истории - антология через торрент
    Скачать бесплатно Леденящие душу истории - антология
    Леденящие душу истории - антология скачать торрент
    Леденящие душу истории - антология смотреть онлайн
    Cкачать фильм Леденящие душу истории - антология бесплатно
    Леденящие душу истории - антология скачать торрент в хорошем качестве
    Леденящие душу истории - антология смотреть онлайн бесплатно в хорошем качестве


    Вы не можете начинать темы
    Вы не можете отвечать на сообщения
    Вы не можете редактировать свои сообщения
    Вы не можете удалять свои сообщения
    Вы не можете голосовать в опросах
    Вы не можете прикреплять файлы к сообщениям
    Вы можете скачивать файлы