Ссылка на приватное зеркало всего за 1$. Внимание количество ограничено!!!

OK

1+1

iTunes

мы

OK

1

WEB-DLRip

Джокер

Пифагор

Ведьмак / The Witcher сериал

Лицензия

ПШазам

ОК

Оно 2

iTunes

30
pack

Вам бонус

ВАЖНО

!!Акция!!

Alien_RageХит недели

RePack

Resident Evil 21

ИГРА 18+

pack

RePack

jed

!!Акция!!

Alien_Rage

RePack

fifa19

RePack

Assassins Creed: Odyssey

RePack

NEED FOR SPEED™ PAYBACK

4 сезон

9 сезон

Бесстыжие 9 сезон

Все сериалы

все сериалы на PB.wtf

RePack

FAR CRY 5
  

Убит своим долгом / Killed by My Debt (Джозеф Буллман) [2018, драма, комедия, WEB-DL 720p] MVO ["Синема УС"] pb.wtf

Убит своим долгом через торрент pb.wtf

Размер: 2.32 GB | Добавлен: 9 мес. назад | Торрент скачан:41 раз
Скачать  

10-04-2019 05:22 Убит своим долгом Скачать торрент  

Убит своим долгом / Killed by My Debt Год выпуска: 2018
Страна: США
Жанр: драма, комедия
Продолжительность: 00:59:10
Перевод: Любительский (многоголосый) | "Синема УС"
Субтитры: отсутствуют

Режиссер: Джозеф Буллман

rating

В ролях:

Тамара Александр, Оуэн Брэзендэл, Джульетт Кауэн, Кэлвин Демба, Джемма Бэйкер, Леони Эллиотт, Грег Эсплин, Джошуа Грант, Лиза Гринвуд, Джордж Кейвуд

Описание:

Джером Роджерс - обычный подросток, и, как и каждый подросток, он хочет немного подзаработать. Однако простое и понятное желание обернулось трагедией для него и его семьи. Фильм основан на реальных событиях.

Качество: WEB-DL 720p
Формат: MKV

Видео: h.264,5 219 Кбит/с, 1280x720
Аудио: Русский, (AC3, 2 ch, 384 Кбит/с)
скриншот  скриншот  скриншот  

Общее
Уникальный идентификатор : 249234530073675015082398826257862345356 (0xBB80D310199C7F29A66F031C2763C28C)
Полное имя : D:\Killed.by.My.Debt.2018.P.WEB-DL.72Op.mkv
Формат : Matroska
Версия формата : Version 2
Размер файла : 2,32 Гбайт
Продолжительность : 59 м. 10 с.
Режим общего битрейта : Переменный
Общий поток : 5605 Кбит/сек
Дата кодирования : UTC 2019-04-09 19:30:46
Программа кодирования : mkvmerge v8.3.0 ('Over the Horizon') 64bit
Библиотека кодирования : libebml v1.3.1 + libmatroska v1.4.2

Видео
Идентификатор : 1
Формат : AVC
Формат/Информация : Advanced Video Codec
Профиль формата : High@L4.1
Параметр CABAC формата : Да
Параметр RefFrames формата : 4 кадра
Идентификатор кодека : V_MPEG4/ISO/AVC
Продолжительность : 59 м. 10 с.
Вид битрейта : Переменный
Битрейт : 5219 Кбит/сек
Максимальный битрейт : 6000 Кбит/сек
Ширина : 1280 пикселей
Высота : 544 пикселя
Соотношение сторон : 2,35:1
Режим частоты кадров : Постоянный
Частота кадров : 23,976 (24000/1001) кадра/сек
Стандарт вещания : Component
Цветовое пространство : YUV
Субдискретизация насыщенности : 4:2:0
Битовая глубина : 8 бит
Тип развёртки : Прогрессивная
Бит/(Пиксели*Кадры) : 0.306
Размер потока : 2,11 Гбайт (91%)
Default : Да
Forced : Нет
Цветовой диапазон : Limited
Основные цвета : BT.709
Характеристики трансфера : BT.709
Коэффициенты матрицы : BT.709

Аудио
Идентификатор : 2
Формат : AC-3
Формат/Информация : Audio Coding 3
Расширение режима : CM (complete main)
Параметр Endianness формата : Big
Идентификатор кодека : A_AC3
Продолжительность : 59 м. 10 с.
Вид битрейта : Постоянный
Битрейт : 384 Кбит/сек
Каналы : 2 канала
Расположение каналов : Front: L R
Частота : 48,0 КГц
Частота кадров : 31,250 кадров/сек (1536 spf)
Метод сжатия : С потерями
Размер потока : 163 Мбайт (7%)
Default : Да
Forced : Нет

pb.wtf



Скачать Убит своим долгом через торрент https://b.radikal.ru/b22/1904/f0/e02a4f1a25e3.jpg Скачать фильм Убит своим долгом через торрент бесплантно в хорошем качестве Описание: Джером Роджерс - обычный подросток, и, как и каждый подросток, он хочет немного подзаработать. Однако простое и понятное желание ... 7 10 3
Торрент: Зарегистрирован [2019-04-10 05:22] · скачан: 41 раз
Статус: T временная
Размер: 2.32 GB
Как cкачать? Как скачать Убит своим долгом через торрент | qTorrent

% Раздел Тема Автор DL S | L
T Фильмы (мультфильмы) cо спонсором показа (Новинки AVI/MKV) [ 745 MB ] Убит своим долгом / Killed by My Debt [2018 WEB-DLRip] MVO ["Синема УС"] bober100 Скачать
1 | 0

28-11-2019 20:33  

Отключить всю рекламу на сайте

    Дорогой пользователь! Огромная просьба, поблагодарите релизера, оцените раздачу и оставьте свои комментарий, если Вы скачали Убит своим долгом через торрент бесплатно! Внесите свою лепту в развитие PiratBit!
    Комментировать посты могут только пользователи прошедшие не сложную регистрацию
    Показать сообщения:    

    Убит своим долгом через торрент
    Скачать бесплатно Убит своим долгом
    Убит своим долгом скачать торрент
    Убит своим долгом смотреть онлайн
    Cкачать фильм Убит своим долгом бесплатно
    Убит своим долгом скачать торрент в хорошем качестве
    Убит своим долгом смотреть онлайн бесплатно в хорошем качестве


    Вы не можете начинать темы
    Вы не можете отвечать на сообщения
    Вы не можете редактировать свои сообщения
    Вы не можете удалять свои сообщения
    Вы не можете голосовать в опросах
    Вы не можете прикреплять файлы к сообщениям
    Вы можете скачивать файлы