Ссылка на приватное зеркало всего за 1$. Внимание количество ограничено!!!

OK

1+1

iTunes

мы

OK

1

WEB-DLRip

Джокер

Пифагор

Ведьмак / The Witcher сериал

iTunes

ПШазам

ОК

Оно 2

iTunes

30
pack

Вам бонус

ВАЖНО

!!Акция!!

Alien_RageХит недели

RePack

Resident Evil 21

ИГРА 18+

pack

RePack

jed

RePack

fifa19

RePack

Assassins Creed: Odyssey

RePack

NEED FOR SPEED™ PAYBACK

4 сезон

9 сезон

Бесстыжие 9 сезон

Все сериалы

все сериалы на PB.wtf

RePack

FAR CRY 5
  

Улыбки грустных мужчин / Úsmevy smutných muzu / Smiles of Sad Men (Дан Сватек) [2018, драма, комедия, WEB-DL 720p] MVO ["Синема УС"] pb.wtf

Улыбки грустных мужчин через торрент pb.wtf

Размер: 3.58 GB | Добавлен: 9 мес. назад | Торрент скачан:12 раз
Скачать  

10-04-2019 11:57 Улыбки грустных мужчин Скачать торрент  

Улыбки грустных мужчин / Úsmevy smutných muzu / Smiles of Sad Men Год выпуска: 2018
Страна: Чехия
Жанр: драма, комедия
Продолжительность: 01:32:24
Перевод: Любительский (многоголосый) | "Синема УС"
Субтитры: отсутствуют

Режиссер: Дан Сватек

rating

В ролях: Дэвид Швеглик, Ярослав Душек, Марика Шопоска, Ондржей Малый, Иван Франек, Ярослав Плесл, Симона Бабчакова, Юрий Мариско, Михал Гуляш, Татьяна Медвецка

Описание: Писатель попадает в клинику, где встречает много успешных мужчин, которые сами разрушили свои жизни, связавшись с алкоголем.

Качество: WEB-DL 720p
Формат: MKV

Видео: h.264,5 154 Кбит/с, 1280x690
Аудио#1: Русский, (AC3, 2 ch, 384 Кбит/с)
скриншот  скриншот  скриншот  

Общее
Уникальный идентификатор : 217718385852549853328943883573862120460 (0xA3CB092F26809F44B1ACAFCDF1A0BC0C)
Полное имя : D:\Usmevy.smutnych.muzu.2018.P.WEB-DL.72Op.mkv
Формат : Matroska
Версия формата : Version 2
Размер файла : 3,58 Гбайт
Продолжительность : 1 ч. 32 м.
Режим общего битрейта : Переменный
Общий поток : 5540 Кбит/сек
Дата кодирования : UTC 2019-04-09 16:26:54
Программа кодирования : mkvmerge v8.3.0 ('Over the Horizon') 64bit
Библиотека кодирования : libebml v1.3.1 + libmatroska v1.4.2

Видео
Идентификатор : 1
Формат : AVC
Формат/Информация : Advanced Video Codec
Профиль формата : High@L4.1
Параметр CABAC формата : Да
Параметр RefFrames формата : 4 кадра
Идентификатор кодека : V_MPEG4/ISO/AVC
Продолжительность : 1 ч. 32 м.
Вид битрейта : Переменный
Битрейт : 5154 Кбит/сек
Максимальный битрейт : 6000 Кбит/сек
Ширина : 1280 пикселей
Высота : 690 пикселей
Соотношение сторон : 1,85:1
Режим частоты кадров : Постоянный
Частота кадров : 23,976 (24000/1001) кадра/сек
Стандарт вещания : Component
Цветовое пространство : YUV
Субдискретизация насыщенности : 4:2:0
Битовая глубина : 8 бит
Тип развёртки : Прогрессивная
Бит/(Пиксели*Кадры) : 0.238
Размер потока : 3,26 Гбайт (91%)
Default : Да
Forced : Нет
Цветовой диапазон : Limited
Основные цвета : BT.709
Характеристики трансфера : BT.709
Коэффициенты матрицы : BT.709

Аудио
Идентификатор : 2
Формат : AC-3
Формат/Информация : Audio Coding 3
Расширение режима : CM (complete main)
Параметр Endianness формата : Big
Идентификатор кодека : A_AC3
Продолжительность : 1 ч. 32 м.
Вид битрейта : Постоянный
Битрейт : 384 Кбит/сек
Каналы : 2 канала
Расположение каналов : Front: L R
Частота : 48,0 КГц
Частота кадров : 31,250 кадров/сек (1536 spf)
Метод сжатия : С потерями
Размер потока : 254 Мбайт (7%)
Default : Да
Forced : Нет

pb.wtf



Скачать Улыбки грустных мужчин через торрент https://a.radikal.ru/a13/1904/69/7a8e46469d07.jpg Скачать фильм Улыбки грустных мужчин через торрент бесплантно в хорошем качестве Описание: Писатель попадает в клинику, где встречает много успешных мужчин, которые сами разрушили свои жизни, связавшись с ... 7.7 10 3
Торрент: Зарегистрирован [2019-04-10 11:57] · скачан: 12 раз
Статус: T временная
Размер: 3.58 GB
Как cкачать? Как скачать Улыбки грустных мужчин через торрент | qTorrent

% Раздел Тема Автор DL S | L
T Фильмы (мультфильмы) cо спонсором показа (Новинки AVI/MKV) [ 1.37 GB ] Улыбки грустных мужчин / Úsmevy smutných muzu / Smiles of Sad Men [2018 WEB-DLRip] MVO ["Синема УС"] bober100 Скачать
1 | 0

28-11-2019 20:33  

Отключить всю рекламу на сайте

    Дорогой пользователь! Огромная просьба, поблагодарите релизера, оцените раздачу и оставьте свои комментарий, если Вы скачали Улыбки грустных мужчин через торрент бесплатно! Внесите свою лепту в развитие PiratBit!
    Комментировать посты могут только пользователи прошедшие не сложную регистрацию
    Показать сообщения:    

    Улыбки грустных мужчин через торрент
    Скачать бесплатно Улыбки грустных мужчин
    Улыбки грустных мужчин скачать торрент
    Улыбки грустных мужчин смотреть онлайн
    Cкачать фильм Улыбки грустных мужчин бесплатно
    Улыбки грустных мужчин скачать торрент в хорошем качестве
    Улыбки грустных мужчин смотреть онлайн бесплатно в хорошем качестве


    Вы не можете начинать темы
    Вы не можете отвечать на сообщения
    Вы не можете редактировать свои сообщения
    Вы не можете удалять свои сообщения
    Вы не можете голосовать в опросах
    Вы не можете прикреплять файлы к сообщениям
    Вы можете скачивать файлы