Ссылка на приватное зеркало всего за 1$. Внимание количество ограничено!!!

OK

1+1

iTunes

мы

OK

1

WEB-DLRip

Джокер

Пифагор

Ведьмак / The Witcher сериал

iTunes

ПШазам

ОК

Оно 2

iTunes

30
pack

Вам бонус

ВАЖНО

!!Акция!!

Alien_RageХит недели

RePack

Resident Evil 21

ИГРА 18+

pack

RePack

jed

RePack

fifa19

RePack

Assassins Creed: Odyssey

RePack

NEED FOR SPEED™ PAYBACK

4 сезон

9 сезон

Бесстыжие 9 сезон

Все сериалы

все сериалы на PB.wtf

RePack

FAR CRY 5
  

Как кошка на дороге / Come un gatto in tangenziale (Риккардо Милани) [2017, комедия, BDRip 720p] MVO ["Синема УС"] pb.wtf

Как кошка на дороге через торрент pb.wtf

Размер: 4.11 GB | Добавлен: 9 мес. назад | Торрент скачан:23 раза
Скачать  

10-04-2019 12:09 Как кошка на дороге Скачать торрент  

Как кошка на дороге / Come un gatto in tangenziale Год выпуска: 2017
Страна: Италия
Жанр: комедия
Продолжительность: 01:40:43
Перевод: Любительский (многоголосый) | "Синема УС"
Субтитры: отсутствуют

Режиссер: Риккардо Милани

rating

В ролях:

Паола Кортеллези, Антонио Альбанезе, Соня Бергамаско, Лука Анджелетти, Антонио Д Осилио, Алиса Маселли, Симоне де Бьянки, Клаудио Амендола, Николь Бионди, Джорджия Кальдерони

Описание:

Джованни - респектабельный глава аналитического центра - возвращается в Рим из командировки и с ужасом узнаёт, что его единственная и горячо любимая 13-летняя дочь Агнеса обручена с Алессио - подростком из бедного пригорода. Чтобы убедить молодых людей, что они не пара, ему придётся заручиться поддержкой Моники - матери Алессио, женщиной со взрывным характером и своими представлениями о социальной справедливости.

Качество: BDRip 720p
Формат: MKV

Видео: h.264,5 457 Кбит/с, 1280x536
Аудио#1: Русский (AC3, 2 ch, 448 Кбит/с)
скриншот  скриншот  скриншот  

Общее
Уникальный идентификатор : 174763565520411507096589662640678723448 (0x837A3D07EFF52D5E8D279830D2595F78)
Полное имя : D:\Come un gatto in tangenziale.2017.P.BDRip.72Op.mkv
Формат : Matroska
Версия формата : Version 2
Размер файла : 4,11 Гбайт
Продолжительность : 1 ч. 40 м.
Режим общего битрейта : Переменный
Общий поток : 5842 Кбит/сек
Дата кодирования : UTC 2019-04-09 17:40:48
Программа кодирования : mkvmerge v8.3.0 ('Over the Horizon') 64bit
Библиотека кодирования : libebml v1.3.1 + libmatroska v1.4.2

Видео
Идентификатор : 1
Формат : AVC
Формат/Информация : Advanced Video Codec
Профиль формата : High@L4.1
Параметр CABAC формата : Да
Параметр RefFrames формата : 4 кадра
Идентификатор кодека : V_MPEG4/ISO/AVC
Продолжительность : 1 ч. 40 м.
Вид битрейта : Переменный
Битрейт : 5457 Кбит/сек
Максимальный битрейт : 6000 Кбит/сек
Ширина : 1280 пикселей
Высота : 536 пикселей
Соотношение сторон : 2,40:1
Режим частоты кадров : Постоянный
Частота кадров : 23,976 (24000/1001) кадра/сек
Стандарт вещания : Component
Цветовое пространство : YUV
Субдискретизация насыщенности : 4:2:0
Битовая глубина : 8 бит
Тип развёртки : Прогрессивная
Бит/(Пиксели*Кадры) : 0.325
Размер потока : 3,76 Гбайт (91%)
Default : Да
Forced : Нет
Цветовой диапазон : Limited
Основные цвета : BT.709
Характеристики трансфера : BT.709
Коэффициенты матрицы : BT.709

Аудио
Идентификатор : 2
Формат : AC-3
Формат/Информация : Audio Coding 3
Расширение режима : CM (complete main)
Параметр Endianness формата : Big
Идентификатор кодека : A_AC3
Продолжительность : 1 ч. 40 м.
Вид битрейта : Постоянный
Битрейт : 384 Кбит/сек
Каналы : 2 канала
Расположение каналов : Front: L R
Частота : 48,0 КГц
Частота кадров : 31,250 кадров/сек (1536 spf)
Метод сжатия : С потерями
Размер потока : 277 Мбайт (7%)
Default : Да
Forced : Нет

pb.wtf



Скачать Как кошка на дороге через торрент https://d.radikal.ru/d06/1904/7c/cbb83964d863.jpg Скачать фильм Как кошка на дороге через торрент бесплантно в хорошем качестве Описание: Джованни - респектабельный глава аналитического центра - возвращается в Рим из командировки и с ужасом узнаёт, что его ... 10 10 2
Торрент: Зарегистрирован [2019-04-10 12:09] · скачан: 23 раз
Статус: T временная
Размер: 4.11 GB
Как cкачать? Как скачать Как кошка на дороге через торрент | qTorrent

% Раздел Тема Автор DL S | L
T Фильмы (мультфильмы) cо спонсором показа (Новинки AVI/MKV) [ 1.37 GB ] Как кошка на дороге / Come un gatto in tangenziale [2017 HDRip] MVO ["Синема УС"] bober100 Скачать
1 | 0

28-11-2019 20:33  

Отключить всю рекламу на сайте

    Дорогой пользователь! Огромная просьба, поблагодарите релизера, оцените раздачу и оставьте свои комментарий, если Вы скачали Как кошка на дороге через торрент бесплатно! Внесите свою лепту в развитие PiratBit!
    Комментировать посты могут только пользователи прошедшие не сложную регистрацию
    Показать сообщения:    

    Как кошка на дороге через торрент
    Скачать бесплатно Как кошка на дороге
    Как кошка на дороге скачать торрент
    Как кошка на дороге смотреть онлайн
    Cкачать фильм Как кошка на дороге бесплатно
    Как кошка на дороге скачать торрент в хорошем качестве
    Как кошка на дороге смотреть онлайн бесплатно в хорошем качестве


    Вы не можете начинать темы
    Вы не можете отвечать на сообщения
    Вы не можете редактировать свои сообщения
    Вы не можете удалять свои сообщения
    Вы не можете голосовать в опросах
    Вы не можете прикреплять файлы к сообщениям
    Вы можете скачивать файлы