новый адрес
Мега распродажа FORZA HORIZON 4 ULTIMATE+ВСЕ DLC+ОНЛАЙН всего за 499р. 349 руб. (супер цена). Внимание количество ограничено!!!

iTunes

1+1

iTunes

мы

iTunes

1

iTunes

Чернобыль

iTunes

Ральф против интернета

Лицензия

ПШазам

Лицензия

Игра престолов

Лицензия

30
pack

ВАЖНО

!!Акция!!

Alien_RageХит недели

RePack

Resident Evil 21

ИГРА 18+

pack

RePack

Metro:Exodus

!!Акция!!

Alien_Rage

RePack

fifa19

RePack

Assassins Creed: Odyssey

RePack

NEED FOR SPEED™ PAYBACK

3 сезон

9 сезон

Бесстыжие 9 сезон

Все сериалы

все сериалы на PB.wtf

RePack

FAR CRY 5
Ребята, катастрофически не хватает 1900р. для оплаты серверов за Октябрь (всвязи с блокировками трафик упал в 3 раза), 1-2р., выручайте.
  

Лови момент (Антонина Руже) [2019, комедия, WEB-DLRip-AVC] [iTunes] pb.wtf

Лови момент через торрент pb.wtf

Раздают: 1 [ 0 KB/s ]
Размер: 1.37 GB | Добавлен: 7 мес. назад | Торрент скачан:355 раз
Скачать  

10-04-2019 14:15 Лови момент Скачать торрент  

Лови момент
Год выпуска: 2019
Страна: Россия
Жанр: комедия
Продолжительность: 01:16:23
Перевод: Не требуется | iTunes
Субтитры: отсутствуют

Режиссер: Антонина Руже



В ролях:

Юлия Топольницкая, Алексей Кортнев, Юрий Быков, Валерия Федорович, Юлия Сулес, Михаил Тарабукин, Ольга Кузьмина, Ингрид Олеринская, Валерия Дергилева, Алексей Весёлкин

Описание:

Главная героиня - милая амбициозная девушка Рита из провинциального городка на черноморском побережье. Она решает вырваться из рутины ведения местных свадеб и утренников и приезжает покорять столицу, пытаясь поступить в театральное училище. Ее ждет много сложных испытаний, которые порой превращаются в очень комичные истории.

Качество: WEB-DLRip-AVC
Формат: MKV

Видео: MPEG-4 AVC, 2178 Кбит/с, 1024x432, 24 кадр/с
Аудио: AC3, 6 ch, 384 Кбит/с
скриншот  скриншот  скриншот  скриншот  скриншот  

Общее
Уникальный идентификатор : 178413069300064495501692238541061118736 (0x86391B759EF5203BA769FDA681DC5B10)
Полное имя : C:\Seize.the.moment.(2019).WEB-DLRip.(AVC).by.Серый1779.Files-x.mkv
Формат : Matroska
Версия формата : Version 2
Размер файла : 1,37 Гбайт
Продолжительность : 1 ч. 16 м.
Общий поток : 2564 Кбит/сек
Дата кодирования : UTC 2019-04-10 04:35:46
Программа кодирования : mkvmerge v7.8.0 ('River Man') 32bit built on Apr 3 2015 12:11:22
Библиотека кодирования : libebml v1.3.1 + libmatroska v1.4.2

Видео
Идентификатор : 1
Формат : AVC
Формат/Информация : Advanced Video Codec
Профиль формата : High@L4.1
Настройки формата : CABAC / 9 Ref Frames
Параметр CABAC формата : Да
Параметр RefFrames формата : 9 кадров
Идентификатор кодека : V_MPEG4/ISO/AVC
Продолжительность : 1 ч. 16 м.
Битрейт : 2178 Кбит/сек
Ширина : 1024 пикселя
Высота : 432 пикселя
Соотношение сторон : 2,40:1
Режим частоты кадров : Постоянный
Частота кадров : 24,000 кадра/сек
Цветовое пространство : YUV
Субдискретизация насыщенности : 4:2:0
Битовая глубина : 8 бит
Тип развёртки : Прогрессивная
Бит/(Пиксели*Кадры) : 0.205
Размер потока : 1,14 Гбайт (83%)
Библиотека кодирования : x264 core 146 r2538 121396c
Настройки программы : cabac=1 / ref=9 / deblock=1:-2:-1 / analyse=0x3:0x133 / me=umh / subme=9 / psy=1 / psy_rd=1.00:0.15 / mixed_ref=1 / me_range=32 / chroma_me=1 / trellis=2 / 8x8dct=1 / cqm=0 / deadzone=21,11 / fast_pskip=0 / chroma_qp_offset=-3 / threads=18 / lookahead_threads=3 / sliced_threads=0 / nr=0 / decimate=1 / interlaced=0 / bluray_compat=0 / constrained_intra=0 / bframes=9 / b_pyramid=2 / b_adapt=2 / b_bias=0 / direct=3 / weightb=1 / open_gop=0 / weightp=2 / keyint=250 / keyint_min=23 / scenecut=40 / intra_refresh=0 / rc=2pass / mbtree=0 / bitrate=2178 / ratetol=1.0 / qcomp=0.60 / qpmin=0 / qpmax=69 / qpstep=4 / cplxblur=20.0 / qblur=0.5 / ip_ratio=1.40 / pb_ratio=1.30 / aq=2:1.00
Default : Да
Forced : Нет
Цветовой диапазон : Limited
Основные цвета : BT.709
Характеристики трансфера : BT.709
Коэффициенты матрицы : BT.709

Аудио
Идентификатор : 2
Формат : AC-3
Формат/Информация : Audio Coding 3
Коммерческое название : Dolby Digital
Идентификатор кодека : A_AC3
Продолжительность : 1 ч. 16 м.
Вид битрейта : Постоянный
Битрейт : 384 Кбит/сек
Каналы : 6 каналов
Channel layout : L R C LFE Ls Rs
Частота : 48,0 КГц
Частота кадров : 31,250 кадров/сек (1536 SPF)
Битовая глубина : 16 бит
Метод сжатия : С потерями
Размер потока : 210 Мбайт (15%)
ServiceKind/String : Complete Main
Default : Да
Forced : Нет

pb.wtf



Скачать Лови момент через торрент https://c.radikal.ru/c22/1903/b6/3345cc6e6cf3.jpg Скачать фильм Лови момент через торрент бесплантно в хорошем качестве Описание: Главная героиня - милая амбициозная девушка Рита из провинциального городка на черноморском побережье. Она решает вырваться из ... 9.8 10 10
Торрент: Зарегистрирован [2019-04-10 14:15] · скачан: 355 раз
Статус: √ проверено
Размер: 1.37 GB
Как cкачать? Как скачать Лови момент через торрент | qTorrent

% Раздел Тема Автор DL S | L
Наши фильмы (HD, WEB-DL 720p, 1080p) [ 2.35 GB ] Лови момент [2019 WEB-DL 720p] bober100 Скачать
3 | 0
Наши новые фильмы 2018-2019 [ 1.37 GB ] Лови момент [2019 WEB-DLRip] bober100 Скачать
6 | 0
Наши фильмы (HD, WEB-DL 720p, 1080p) [ 2.64 GB ] Лови момент [2019 WEB-DL 1080p] bober100 Скачать
1 | 0
Фильмы [HD 720p, 1080p] (Хороший звук DUB, MVO) [ 16.03 GB ] Сделай ша Лови момент / Make Your Move [2013 BDRip 1080p by msltel] DUB DVO msltel Скачать
1 | 0
Фильмы [HD 720p, 1080p] (Хороший звук DUB, MVO) [ 5.31 GB ] Сделай ша Лови момент / Make Your Move [2013 BDRip 720p by msltel] DUB DVO msltel Скачать
1 | 0
Фильмы с авторской озвучкой [ 1.5 GB ] Лови момент / Захватить день / Seize the Day [1986 DVDRip] [AVO] killermax2013 Скачать
1 | 0


>> Регистрируемся здесь <<






Отзывы и комментарии о схеме читаем и пишем здесь: ---> Отзывы и комментарии о схеме

Новые благодарочки в телеграм довольных пользователей:
скриншот   скриншот   скриншот   скриншот   скриншот
    Дорогой пользователь! Огромная просьба, поблагодарите релизера, оцените раздачу и оставьте свои комментарий, если Вы скачали Лови момент через торрент бесплатно! Внесите свою лепту в развитие PiratBit!
    Комментировать посты могут только пользователи прошедшие не сложную регистрацию
    Показать сообщения:    

    Лови момент через торрент
    Скачать бесплатно Лови момент
    Лови момент скачать торрент
    Лови момент смотреть онлайн
    Cкачать фильм Лови момент бесплатно
    Лови момент скачать торрент в хорошем качестве
    Лови момент смотреть онлайн бесплатно в хорошем качестве


    Вы не можете начинать темы
    Вы не можете отвечать на сообщения
    Вы не можете редактировать свои сообщения
    Вы не можете удалять свои сообщения
    Вы не можете голосовать в опросах
    Вы не можете прикреплять файлы к сообщениям
    Вы можете скачивать файлы