Ссылка на приватное зеркало нашего сайта всего за 1$. Внимание количество ограничено!!!

2 сезон

iTunes

1 сезон

1

2 сезон

2 сезон

iTunes

1 сезон

RePack

30

Ultimate

ВАЖНО

ИГРА 18+

pack

RePack

MK11
pack

Забери бонус

RePack

jed

!!Акция!!

Alien_Rage

RePack

fifa19

RePack

Assassins Creed: Odyssey

RePack

NEED FOR SPEED™ PAYBACK

4 сезон

9 сезон

Бесстыжие 9 сезон

Все сериалы

все сериалы на PB.wtf

RePack

FAR CRY 5
  

Убивая Еву / Killing Eve / Сезон: 2 / Серии: 1-8 из 8 (Джон Ист) [2019, Триллер, WEB-DLRip] [MVO] (Amedia) pb.wtf

Убивая Еву через торрент pb.wtf

Размер: 4.32 GB | Добавлен: 1 год 6 мес. назад | Торрент скачан:54 раза
Скачать  

10-04-2019 16:03 Убивая Еву Скачать торрент  

Убивая Еву / Killing Eve Год выпуска: 2019
Страна: США
Жанр: Триллер
Продолжительность: ~00:44:00
Перевод: Профессиональный (многоголосый закадровый) Novamedia по заказу *Amedia*

Режиссёр: Джон Ист, Дэймон Томас, Гарри Брэдбир

В ролях: Сандра О, Джоди Комер, Фиона Шоу, Ким Бодния, Оуэн МакДоннел, Кирби Хауэлл-Баптисте, Шон Делани, Даррен Бойд, Хелена Холмс, Дэвид Агранов

Описание: Проект, в основу которого легли романы Люка Дженнингса, повествует о наёмной убийце-психопатке Вилланелле и охотящейся на неё Еве — сотруднице службы безопасности, давно мечтавшей поменять бумажную работу на оперативную. Так начинается смертельно опасная, полная юмора и экшена игра в кошки-мышки между элегантной, талантливой убийцей и смышлёной оперативницей — обе женщины равно умны и одинаково одержимы друг другом.

скриншот  скриншот  

Качество: WEB-DLRip
Формат: AVI
Видео: XviD, ~ 1600 Кбит/с, 720x400
Аудио 1: 48 kHz, MP3, 2 ch, ~128.00 kbps | Rus
Аудио 2: 48 kHz, MP3, 2 ch, ~128.00 kbps | Eng
General
Complete name : E:\Killing Eve (Season 2) WEB-DLRip Amedia\Killing.Eve.S02E01.WEB-DLRip.RGzsRutracker.[Wentworth_Miller].avi
Format : AVI
Format/Info : Audio Video Interleave
File size : 561 MiB
Duration : 41 min 56 s
Overall bit rate : 1 870 kb/s
Writing application : VirtualDubMod 1.5.10.3 | www.virtualdub-fr.org || (build 2550/release)

Video
ID : 0
Format : MPEG-4 Visual
Format profile : Advanced Simple@L5
Format settings : BVOP1
Format settings, BVOP : 1
Format settings, QPel : No
Format settings, GMC : No warppoints
Format settings, Matrix : Default (MPEG)
Codec ID : XVID
Codec ID/Hint : XviD
Duration : 41 min 56 s
Bit rate : 1 529 kb/s
Width : 720 pixels
Height : 400 pixels
Display aspect ratio : 16:9
Frame rate : 25.000 FPS
Color space : YUV
Chroma subsampling : 4:2:0
Bit depth : 8 bits
Scan type : Progressive
Compression mode : Lossy
Bits/(Pixel*Frame) : 0.212
Stream size : 459 MiB (82%)
Writing library : XviD 67

Audio #1
ID : 1
Format : MPEG Audio
Format version : Version 1
Format profile : Layer 3
Format settings : Joint stereo / MS Stereo
Mode : Joint stereo
Mode extension : MS Stereo
Codec ID : 55
Codec ID/Hint : MP3
Duration : 41 min 56 s
Bit rate mode : Constant
Bit rate : 128 kb/s
Channel(s) : 2 channels
Sampling rate : 48.0 kHz
Compression mode : Lossy
Stream size : 38.4 MiB (7%)
Alignment : Aligned on interleaves

Audio #2
ID : 2
Format : MPEG Audio
Format version : Version 1
Format profile : Layer 3
Format settings : Joint stereo / MS Stereo
Mode : Joint stereo
Mode extension : MS Stereo
Codec ID : 55
Codec ID/Hint : MP3
Duration : 41 min 56 s
Bit rate mode : Constant
Bit rate : 128 kb/s
Channel(s) : 2 channels
Sampling rate : 48.0 kHz
Compression mode : Lossy
Stream size : 38.4 MiB (7%)
Alignment : Aligned on interleaves
скриншот  скриншот  скриншот  
Внимание! Раздача ведётся путём добавления новых серий; при каждом добавлении создаётся новый торрент. Чтобы начать докачку новой серии, пользователям необходимо сделать следующее:
(1) остановить скачивание,
(2) удалить старый торрент у себя из клиента (старые серии удалять не надо),
(3) скачать новый торрент и запустить его у себя в клиенте вместо старого, при этом указать клиенту путь в старую папку куда и должно происходить скачивание новых серий.

Ваш клиент при этом должен произвести хеширование (проверку) старой папки (если не производит сам - помогите ему сделать это), и будет докачивать только те серии которых у вас ещё нет. Старые серии при этом не удаляются, а продолжают раздаваться!

Eсли вы уже удалили старые серии, то предотвратить повторную закачку старых серий можно, отжав галочку в соответствующих местах при запуске нового торрента. По возможности, желательно не удалять старые серии как можно дольше чтобы релизёр не столько продолжал раздавать старые серии, а смог сконцентрироваться на новых.
pb.wtf



Скачать Убивая Еву через торрент http://img14.lostpic.net/2019/04/09/b0ccf32e68d7ce7e796067e9165adad3.jpg Скачать фильм Убивая Еву через торрент бесплантно в хорошем качестве Описание: Проект, в основу которого легли романы Люка Дженнингса, повествует о наёмной убийце-психопатке Вилланелле и охотящейся на неё Еве ... 7.8 10 5
Торрент: Зарегистрирован [2019-05-29 09:21] · скачан: 54 раз
Статус: √ проверено
Размер: 4.32 GB
Как cкачать? Как скачать Убивая Еву через торрент | qTorrent

% Раздел Тема Автор DL S | L
Зарубежные сериалы [ 18.42 GB ] Убивая Еву / Killing Eve / Сезон: 2 / Серии: 1-8 из 8 [2019 WEB-DL 1080p] [MVO] killermax2013 Скачать
1 | 0
Зарубежные сериалы [ 4.62 GB ] Убивая Еву / Killing Eve / Сезон: 2 / Серии: 1-8 из 8 [2019 . WEB-DLRip] MVO [LostFilm] bober100 Скачать
4 | 0
Зарубежные сериалы [ 18.96 GB ] Убивая Еву / Killing Eve / Сезон: 2 / Серии: 1-8 из 8 [2019 WEB-DL 1080p] [MVO] killermax2013 Скачать
1 | 0
Зарубежные сериалы [ 5.66 GB ] Убивая Еву / Killing Eve / Сезон: 2 / Серии: 1-8 из 8 [2019 WEB-DLRip] [MVO] killermax2013 Скачать
1 | 0

28-11-2019 20:33  

Отключить всю рекламу на сайте

    Дорогой пользователь! Огромная просьба, поблагодарите релизера, оцените раздачу и оставьте свои комментарий, если Вы скачали Убивая Еву через торрент бесплатно! Внесите свою лепту в развитие PiratBit!
    Комментировать посты могут только пользователи прошедшие не сложную регистрацию
    Показать сообщения:    

    Убивая Еву через торрент
    Скачать бесплатно Убивая Еву
    Убивая Еву скачать торрент
    Убивая Еву смотреть онлайн
    Cкачать фильм Убивая Еву бесплатно
    Убивая Еву скачать торрент в хорошем качестве
    Убивая Еву смотреть онлайн бесплатно в хорошем качестве


    Вы не можете начинать темы
    Вы не можете отвечать на сообщения
    Вы не можете редактировать свои сообщения
    Вы не можете удалять свои сообщения
    Вы не можете голосовать в опросах
    Вы не можете прикреплять файлы к сообщениям
    Вы можете скачивать файлы