Ссылка на приватное зеркало всего за 1$. Внимание количество ограничено!!!

OK

1+1

iTunes

мы

OK

1

WEB-DLRip

Джокер

Пифагор

Ведьмак / The Witcher сериал

iTunes

ПШазам

ОК

Оно 2

iTunes

30
pack

Вам бонус

ВАЖНО

!!Акция!!

Alien_RageХит недели

RePack

Resident Evil 21

ИГРА 18+

pack

RePack

jed

RePack

fifa19

RePack

Assassins Creed: Odyssey

RePack

NEED FOR SPEED™ PAYBACK

4 сезон

9 сезон

Бесстыжие 9 сезон

Все сериалы

все сериалы на PB.wtf

RePack

FAR CRY 5
  

Где птицы не летают / Where Birds Don't Fly (Алек Джирхарт) [2017, триллер, драма, криминал, WEB-DL 720p] MVO ["Синема УС"] pb.wtf

Где птицы не летают через торрент pb.wtf

Размер: 3.7 GB | Добавлен: 9 мес. назад | Торрент скачан:21 раз
Скачать  

10-04-2019 16:49 Где птицы не летают Скачать торрент  

Где птицы не летают / Where Birds Don't FlyГод выпуска: 2017
Страна: США
Жанр: триллер, драма, криминал
Продолжительность: 01:35:37
Перевод: Любительский (многоголосый) | "Синема УС"
Субтитры: отсутствуют

Режиссер: Алек Джирхарт

rating

В ролях: Ламар Белл, Бэйли Гарсиа, Дилан Хоббс, Анфиса Джейкобс, Эндрей Джонсон, Лу Джастис Джонсон, Гэбриел Лэйн, Джессика Льюис, Доминик Марселл, Бен Мунос

Описание: Команда бывалых детективов столкнулась с настоящим злом, начав расследование серии убийств в Сан-Бернардино, Калифорния.

Качество: WEB-DL 720p
Формат: MKV

Видео: h.264,5 147 Кбит/с, 1280x688
Аудио: Русский, (AC3, 2 ch, 384 Кбит/с)
скриншот  скриншот  скриншот  

Общее
Уникальный идентификатор : 187939784985301715199614353761600835857 (0x8D63E2CE919A2FA39370164A9B409111)
Полное имя : D:\Where_Birds_Dont_Fly__2017.P.WEb_DL.72Op.mkv
Формат : Matroska
Версия формата : Version 2
Размер файла : 3,70 Гбайт
Продолжительность : 1 ч. 35 м.
Режим общего битрейта : Переменный
Общий поток : 5533 Кбит/сек
Дата кодирования : UTC 2019-04-07 18:35:15
Программа кодирования : mkvmerge v8.3.0 ('Over the Horizon') 64bit
Библиотека кодирования : libebml v1.3.1 + libmatroska v1.4.2

Видео
Идентификатор : 1
Формат : AVC
Формат/Информация : Advanced Video Codec
Профиль формата : High@L4.1
Параметр CABAC формата : Да
Параметр RefFrames формата : 4 кадра
Идентификатор кодека : V_MPEG4/ISO/AVC
Продолжительность : 1 ч. 35 м.
Вид битрейта : Переменный
Битрейт : 5147 Кбит/сек
Максимальный битрейт : 6000 Кбит/сек
Ширина : 1280 пикселей
Высота : 688 пикселей
Соотношение сторон : 1,85:1
Режим частоты кадров : Постоянный
Частота кадров : 23,976 (24000/1001) кадра/сек
Стандарт вещания : Component
Цветовое пространство : YUV
Субдискретизация насыщенности : 4:2:0
Битовая глубина : 8 бит
Тип развёртки : Прогрессивная
Бит/(Пиксели*Кадры) : 0.239
Размер потока : 3,37 Гбайт (91%)
Default : Да
Forced : Нет
Цветовой диапазон : Limited
Основные цвета : BT.709
Характеристики трансфера : BT.709
Коэффициенты матрицы : BT.709

Аудио
Идентификатор : 2
Формат : AC-3
Формат/Информация : Audio Coding 3
Расширение режима : CM (complete main)
Параметр Endianness формата : Big
Идентификатор кодека : A_AC3
Продолжительность : 1 ч. 35 м.
Вид битрейта : Постоянный
Битрейт : 384 Кбит/сек
Каналы : 2 канала
Расположение каналов : Front: L R
Частота : 48,0 КГц
Частота кадров : 31,250 кадров/сек (1536 spf)
Метод сжатия : С потерями
Размер потока : 263 Мбайт (7%)
Default : Да
Forced : Нет

pb.wtf



Скачать Где птицы не летают через торрент https://c.radikal.ru/c41/1904/2d/6ee2036e08d9.jpg Скачать фильм Где птицы не летают через торрент бесплантно в хорошем качестве Описание: Команда бывалых детективов столкнулась с настоящим злом, начав расследование серии убийств в Сан-Бернардино, ... 10 10 3
Торрент: Зарегистрирован [2019-04-10 16:49] · скачан: 21 раз
Статус: T временная
Размер: 3.7 GB
Как cкачать? Как скачать Где птицы не летают через торрент | qTorrent

28-11-2019 20:33  

Отключить всю рекламу на сайте

    Дорогой пользователь! Огромная просьба, поблагодарите релизера, оцените раздачу и оставьте свои комментарий, если Вы скачали Где птицы не летают через торрент бесплатно! Внесите свою лепту в развитие PiratBit!
    Комментировать посты могут только пользователи прошедшие не сложную регистрацию
    Показать сообщения:    

    Где птицы не летают через торрент
    Скачать бесплатно Где птицы не летают
    Где птицы не летают скачать торрент
    Где птицы не летают смотреть онлайн
    Cкачать фильм Где птицы не летают бесплатно
    Где птицы не летают скачать торрент в хорошем качестве
    Где птицы не летают смотреть онлайн бесплатно в хорошем качестве


    Вы не можете начинать темы
    Вы не можете отвечать на сообщения
    Вы не можете редактировать свои сообщения
    Вы не можете удалять свои сообщения
    Вы не можете голосовать в опросах
    Вы не можете прикреплять файлы к сообщениям
    Вы можете скачивать файлы