Ссылка на приватное зеркало нашего сайта всего за 1$. Внимание количество ограничено!!!

2 сезон

iTunes

1 сезон

1

iTunes

iTunes

iTunes

1 сезон

RePack

30

ИГРА 18+

pack

ВАЖНО

!!Акция!!

Alien_RageХит недели

RePack

MK11
pack

Забери бонус

RePack

jed

!!Акция!!

Alien_Rage

RePack

fifa19

RePack

Assassins Creed: Odyssey

RePack

NEED FOR SPEED™ PAYBACK

4 сезон

9 сезон

Бесстыжие 9 сезон

Все сериалы

все сериалы на PB.wtf

RePack

FAR CRY 5
  

Ограбление по Фрейду / Ruben Brandt, Collector (Милорад Крстич) [2018, Мультфильм, боевик, криминал, BDRip 1080p] AVO [BadBajo] pb.wtf

Ограбление по Фрейду через торрент pb.wtf

Размер: 11.46 GB | Добавлен: 1 год 6 мес. назад | Торрент скачан:26 раз
Скачать  

10-04-2019 18:12 Ограбление по Фрейду Скачать торрент  

Ограбление по Фрейду / Ruben Brandt, Collector
Год выпуска: 2018
Страна: Венгрия
Жанр: Мультфильм, боевик, криминал
Продолжительность: 01:33:40
Перевод: Авторский (одноголосый) |
Субтитры: Английские (отключаемые)

Режиссер: Милорад Крстич

rating


В ролях:

Иван Камараш, Габриэлла Хамори, Залан Макранчи, Цаба Мартон, Пол Беллантони, Мэтт Девере, Каталин Домби, Генри Грант, Петер Линка, Мате Месарош

Описание:

Психоаналитик экстра-класса и рафинированный эстет Рубен Брандт эффективно врачует закоренелых преступников, но сам страдает от ночных кошмаров. Ему кажется, что единственный способ излечиться — выкрасть тринадцать художественных шедевров из самых охраняемых музеев мира. Собрав команду из четырех своих пациентов, он грабит Лувр, галерею Тейт, Эрмитаж и Нью-Йоркский музей современного искусства, превращаясь в самого известного и преследуемого преступника. За ним гоняются итальянские мафиози, русские гангстеры, полиция, а также охотники за головами, заинтересованные в 100 млн вознаграждения. Но самый грозный противник Брандта — Майк Ковальский, частный детектив, работающий на страховые компании…

Качество: BDRip 1080p
Формат: MKV

Видео: 1920х808 ~14000 Kbps, 23.976 (24000/1001) FPS
Аудио#1: DTS, 6 ch, 1 509 Kbps l Русский (BadBajo)
Аудио#2: DTS, 6 ch, 1 509 Kbps l Английский
Аудио#3: AC3, 6 ch, 640 Kbps l Русский (BadBajo)
скриншот  скриншот  скриншот  скриншот  скриншот  

Общее
Уникальный идентификатор : 216300009964325921581591895348361427909 (0xA2B9DDDA8E6D1B0668F5F9C307DDFBC5)
Полное имя : D:\Ruben Brandt Collector.2019.1080p.Bluray.x264_rus_BadBajo.mkv
Формат : Matroska
Версия формата : Version 4 / Version 2
Размер файла : 11,5 Гбайт
Продолжительность : 1 ч. 33 м.
Общий поток : 17,5 Мбит/сек
Название фильма : Ruben Brandt Collector.2019.1080p.Bluray.x264_rus_BadBajo
Дата кодирования : UTC 2019-04-10 17:11:15
Программа кодирования : mkvmerge v20.0.0 ('I Am The Sun') 64-bit
Библиотека кодирования : libebml v1.3.5 + libmatroska v1.4.8
Обложка : Yes
Attachments : cover.jpg

Видео
Идентификатор : 1
Формат : AVC
Формат/Информация : Advanced Video Codec
Профиль формата : High@L4.1
Параметр CABAC формата : Да
Параметр RefFrames формата : 4 кадра
Идентификатор кодека : V_MPEG4/ISO/AVC
Продолжительность : 1 ч. 33 м.
Битрейт : 14,0 Мбит/сек
Ширина : 1920 пикселей
Высота : 808 пикселей
Соотношение сторон : 2,40:1
Режим частоты кадров : Постоянный
Частота кадров : 24,000 кадра/сек
Цветовое пространство : YUV
Субдискретизация насыщенности : 4:2:0
Битовая глубина : 8 бит
Тип развёртки : Прогрессивная
Бит/(Пиксели*Кадры) : 0.376
Размер потока : 8,84 Гбайт (77%)
Заголовок : Ruben Brandt Collector.2019
Библиотека кодирования : x264 core 157 r2935 545de2f
Настройки программы : cabac=1 / ref=1 / deblock=1:0:0 / analyse=0x3:0x113 / me=hex / subme=2 / psy=1 / psy_rd=1.00:0.00 / mixed_ref=0 / me_range=16 / chroma_me=1 / trellis=0 / 8x8dct=1 / cqm=0 / deadzone=21,11 / fast_pskip=1 / chroma_qp_offset=0 / threads=18 / lookahead_threads=6 / sliced_threads=0 / nr=0 / decimate=1 / interlaced=0 / bluray_compat=0 / constrained_intra=0 / bframes=3 / b_pyramid=2 / b_adapt=1 / b_bias=0 / direct=1 / weightb=1 / open_gop=0 / weightp=1 / keyint=240 / keyint_min=24 / scenecut=40 / intra_refresh=0 / rc_lookahead=10 / rc=abr / mbtree=1 / bitrate=14000 / ratetol=1.0 / qcomp=0.60 / qpmin=0 / qpmax=69 / qpstep=4 / vbv_maxrate=62500 / vbv_bufsize=78125 / nal_hrd=none / filler=0 / ip_ratio=1.40 / aq=1:1.00
Default : Да
Forced : Нет
Цветовой диапазон : Limited
Основные цвета : BT.709
Характеристики трансфера : BT.709
Коэффициенты матрицы : BT.709

Аудио #1
Идентификатор : 2
Формат : DTS
Формат/Информация : Digital Theater Systems
Режим : 16
Параметр Endianness формата : Big
Идентификатор кодека : A_DTS
Продолжительность : 1 ч. 33 м.
Вид битрейта : Постоянный
Битрейт : 1510 Кбит/сек
Каналы : 6 каналов
Расположение каналов : Front: L C R, Side: L R, LFE
Частота : 48,0 КГц
Частота кадров : 93,750 кадра/сек (512 spf)
Битовая глубина : 24 бит
Метод сжатия : С потерями
Размер потока : 1011 Мбайт (9%)
Заголовок : Ruben Brandt Collector.2019.DTS_rus_BadBajo
Язык : Russian
Default : Да
Forced : Да

Аудио #2
Идентификатор : 3
Формат : AC-3
Формат/Информация : Audio Coding 3
Расширение режима : CM (complete main)
Параметр Endianness формата : Big
Идентификатор кодека : A_AC3
Продолжительность : 1 ч. 33 м.
Вид битрейта : Постоянный
Битрейт : 640 Кбит/сек
Каналы : 6 каналов
Расположение каналов : Front: L C R, Side: L R, LFE
Частота : 48,0 КГц
Частота кадров : 31,250 кадров/сек (1536 spf)
Метод сжатия : С потерями
Размер потока : 429 Мбайт (4%)
Заголовок : Ruben Brandt Collector.2019.AC3_rus_BadBajo
Язык : Russian
Default : Нет
Forced : Нет

Аудио #3
Идентификатор : 4
Формат : DTS
Формат/Информация : Digital Theater Systems
Режим : 16
Параметр Endianness формата : Big
Идентификатор кодека : A_DTS
Продолжительность : 1 ч. 33 м.
Вид битрейта : Постоянный
Битрейт : 1509 Кбит/сек
Каналы : 6 каналов
Расположение каналов : Front: L C R, Side: L R, LFE
Частота : 48,0 КГц
Частота кадров : 93,750 кадра/сек (512 spf)
Битовая глубина : 24 бит
Метод сжатия : С потерями
Размер потока : 1011 Мбайт (9%)
Заголовок : Ruben Brandt Collector.2019.DTS_eng
Язык : English
Default : Нет
Forced : Нет

Текст
Идентификатор : 5
Формат : UTF-8
Идентификатор кодека : S_TEXT/UTF8
Идентификатор кодека/Информация : UTF-8 Plain Text
Заголовок : Ruben Brandt Collector.2019_eng
Язык : English
Default : Нет
Forced : Нет

Меню
00:00:00.000 : :Chapter 1
00:03:12.875 : :Chapter 2
00:07:35.000 : :Chapter 3
00:10:19.583 : :Chapter 4
00:13:56.042 : :Chapter 5
00:17:14.542 : :Chapter 6
00:21:02.458 : :Chapter 7
00:24:52.417 : :Chapter 8
00:29:09.292 : :Chapter 9
00:33:33.083 : :Chapter 10
00:37:21.500 : :Chapter 11
00:39:17.375 : :Chapter 12
00:42:15.375 : :Chapter 13
00:44:37.958 : :Chapter 14
00:51:26.917 : :Chapter 15
00:54:56.708 : :Chapter 16
00:59:01.875 : :Chapter 17
01:03:23.583 : :Chapter 18
01:09:45.292 : :Chapter 19
01:12:41.167 : :Chapter 20
01:17:48.167 : :Chapter 21
01:21:05.792 : :Chapter 22
01:25:47.792 : :Chapter 23
01:30:21.917 : :Chapter 24

pb.wtf



Скачать Ограбление по Фрейду через торрент https://c.radikal.ru/c22/1904/c6/eed91b13756d.jpg Скачать фильм Ограбление по Фрейду через торрент бесплантно в хорошем качестве Описание: Психоаналитик экстра-класса и рафинированный эстет Рубен Брандт эффективно врачует закоренелых преступников, но сам страдает от ... 8.8 10 6
Торрент: Зарегистрирован [2019-04-10 18:12] · скачан: 26 раз
Статус: T временная
Размер: 11.46 GB
Как cкачать? Как скачать Ограбление по Фрейду через торрент | qTorrent

% Раздел Тема Автор DL S | L
# Фильмы (мультфильмы) cо спонсором показа (Новинки AVI/MKV) [ 8 GB ] Ограбление по Фрейду / Ruben Brandt Collector [2018 Мультфильм BDRip 1080p] DUB [Line] bober100 Скачать
1 | 0
# Фильмы (мультфильмы) cо спонсором показа (Новинки AVI/MKV) [ 4.52 GB ] Ограбление по Фрейду / Ruben Brandt Collector [2018 Мультфильм BDRip 720p] DUB [Line] bober100 Скачать
1 | 0
Иностранные мультфильмы [ 1.42 GB ] Ограбление по Фрейду / Ruben Brandt Collector [2018 Мультфильм BDRip] bober100 Скачать
1 | 0


Последний раз редактировалось: bober100 (2019-04-11 03:08), всего редактировалось 1 раз

28-11-2019 20:33  

Отключить всю рекламу на сайте

10-04-2019 18:39 Ограбление по Фрейду Скачать торрент  

а поменьше рип не сделаете ? хотя бы гига на 4 . pb.wtf



    Дорогой пользователь! Огромная просьба, поблагодарите релизера, оцените раздачу и оставьте свои комментарий, если Вы скачали Ограбление по Фрейду через торрент бесплатно! Внесите свою лепту в развитие PiratBit!
    Комментировать посты могут только пользователи прошедшие не сложную регистрацию
    Показать сообщения:    

    Ограбление по Фрейду через торрент
    Скачать бесплатно Ограбление по Фрейду
    Ограбление по Фрейду скачать торрент
    Ограбление по Фрейду смотреть онлайн
    Cкачать фильм Ограбление по Фрейду бесплатно
    Ограбление по Фрейду скачать торрент в хорошем качестве
    Ограбление по Фрейду смотреть онлайн бесплатно в хорошем качестве


    Вы не можете начинать темы
    Вы не можете отвечать на сообщения
    Вы не можете редактировать свои сообщения
    Вы не можете удалять свои сообщения
    Вы не можете голосовать в опросах
    Вы не можете прикреплять файлы к сообщениям
    Вы можете скачивать файлы