Ссылка на приватное зеркало нашего сайта всего за 1$. Внимание количество ограничено!!!

2 сезон

iTunes

1 сезон

1

2 сезон

2 сезон

iTunes

1 сезон

RePack

30

Ultimate

ВАЖНО

ИГРА 18+

pack

RePack

MK11
pack

Забери бонус

RePack

jed

!!Акция!!

Alien_Rage

RePack

fifa19

RePack

Assassins Creed: Odyssey

RePack

NEED FOR SPEED™ PAYBACK

4 сезон

9 сезон

Бесстыжие 9 сезон

Все сериалы

все сериалы на PB.wtf

RePack

FAR CRY 5
  

Клаустрофобы / Escape Room (Адам Робител) [2019, триллер, WEB-DL 720p] DUB [iTunes] pb.wtf

Клаустрофобы через торрент pb.wtf

Размер: 2.55 GB | Добавлен: 1 год 7 мес. назад | Торрент скачан:415 раз
Скачать  

10-04-2019 18:27 Клаустрофобы Скачать торрент  

Клаустрофобы / Escape Room Год выпуска: 2019
Страна: ЮАР, США
Жанр: триллер
Продолжительность: 01:39:36
Перевод: Дублированный | iTunes
Субтитры: Русские (Forced, full), английские

Режиссер: Адам Робител

rating

В ролях:

Тейлор Расселл, Логан Миллер, Джей Эллис, Тайлер Лабин, Дебора Энн Уолл, Ник Додани, Йорик ван Вагенинген, Корнелиус Джини мл., Барт Фаш

Описание:

Получив от таинственной организации приглашение сыграть в квест, победитель которого получит солидную сумму, шестеро незнакомых между собой людей решают попытать удачу. Но совсем скоро им становится понятно, что их выбрали для игры не случайно, задания не такие безобидные, и им грозит вполне реальная опасность, а ставка в игре - их собственные жизни.

Качество: WEB-DL 720p
Формат: MKV

Видео: MPEG-4 AVC, 1248x520, 2643 Kbit/s, 23.976 fps
Аудио#1: 48 kHz, AC3, 5.1, 384 Kbps | iTunes | RUS |
Аудио#2: 48 kHz, E-AC3, 5.1, 640 Kbps | Оригинал | ENG |
скриншот  скриншот  скриншот  скриншот  скриншот  

General
Unique ID : 211982572030724050637763783665455905238 (0x9F7A5BBA9C9CA1C65DB99000F3D2B9D6)
Complete name : D:Video111Escape.Room.2019.WEB-DL.720p.selezen.mkv
Format : Matroska
Format version : Version 4
File size : 2.55 GiB
Duration : 1 h 39 min
Overall bit rate : 3 669 kb/s
Movie name : Escape Room 2019 from селезень
Encoded date : UTC 2019-04-10 18:21:40
Writing application : mkvmerge v32.0.0 ('Astral Progressions') 64-bit
Writing library : libebml v1.3.7 + libmatroska v1.5.0

Video
ID : 1
Format : AVC
Format/Info : Advanced Video Codec
Format profile : High@L3.1
Format settings : CABAC / 4 Ref Frames
Format settings, CABAC : Yes
Format settings, ReFrames : 4 frames
Codec ID : V_MPEG4/ISO/AVC
Duration : 1 h 39 min
Bit rate mode : Constant
Bit rate : 2 643 kb/s
Nominal bit rate : 6 000 kb/s
Width : 1 248 pixels
Height : 520 pixels
Display aspect ratio : 2.40:1
Frame rate mode : Constant
Frame rate : 23.976 (24000/1001) FPS
Color space : YUV
Chroma subsampling : 4:2:0
Bit depth : 8 bits
Scan type : Progressive
Bits/(Pixel*Frame) : 0.170
Stream size : 1.84 GiB (72%)
Default : Yes
Forced : No
Color range : Limited
Color primaries : BT.709
Transfer characteristics : BT.709
Matrix coefficients : BT.709

Audio #1
ID : 2
Format : AC-3
Format/Info : Audio Coding 3
Commercial name : Dolby Digital
Codec ID : A_AC3
Duration : 1 h 39 min
Bit rate mode : Constant
Bit rate : 384 kb/s
Channel(s) : 6 channels
Channel layout : L R C LFE Ls Rs
Sampling rate : 48.0 kHz
Frame rate : 31.250 FPS (1536 SPF)
Bit depth : 16 bits
Compression mode : Lossy
Stream size : 274 MiB (10%)
Title : iTunes
Language : Russian
Service kind : Complete Main
Default : Yes
Forced : Yes

Audio #2
ID : 3
Format : E-AC-3
Format/Info : Enhanced AC-3
Commercial name : Dolby Digital Plus
Codec ID : A_EAC3
Duration : 1 h 39 min
Bit rate mode : Constant
Bit rate : 640 kb/s
Channel(s) : 6 channels
Channel layout : L R C LFE Ls Rs
Sampling rate : 48.0 kHz
Frame rate : 31.250 FPS (1536 SPF)
Compression mode : Lossy
Stream size : 456 MiB (17%)
Title : Original
Language : English
Service kind : Complete Main
Default : No
Forced : No

Text #1
ID : 4
Format : UTF-8
Codec ID : S_TEXT/UTF8
Codec ID/Info : UTF-8 Plain Text
Duration : 1 h 34 min
Bit rate : 0 b/s
Count of elements : 5
Stream size : 178 Bytes (0%)
Title : Forced
Language : Russian
Default : Yes
Forced : Yes

Text #2
ID : 5
Format : UTF-8
Codec ID : S_TEXT/UTF8
Codec ID/Info : UTF-8 Plain Text
Duration : 1 h 38 min
Bit rate : 93 b/s
Count of elements : 1356
Stream size : 67.7 KiB (0%)
Title : Full
Language : Russian
Default : No
Forced : No

Text #3
ID : 6
Format : UTF-8
Codec ID : S_TEXT/UTF8
Codec ID/Info : UTF-8 Plain Text
Duration : 1 h 33 min
Bit rate : 70 b/s
Count of elements : 1553
Stream size : 48.6 KiB (0%)
Title : Full
Language : English
Default : No
Forced : No

Text #4
ID : 7
Format : UTF-8
Codec ID : S_TEXT/UTF8
Codec ID/Info : UTF-8 Plain Text
Duration : 1 h 37 min
Bit rate : 72 b/s
Count of elements : 1764
Stream size : 51.7 KiB (0%)
Title : SDH
Language : English
Default : No
Forced : No

Menu
00:00:00.000 : en:1
00:04:35.025 : en:2
00:09:24.646 : en:3
00:14:07.762 : en:4
00:19:45.099 : en:5
00:25:54.218 : en:6
00:33:07.942 : en:7
00:37:26.157 : en:8
00:43:04.077 : en:9
00:50:05.164 : en:10
00:53:57.562 : en:11
01:03:14.285 : en:12
01:09:06.887 : en:13
01:16:13.688 : en:14
01:22:47.748 : en:15
01:30:26.873 : en:16

pb.wtf



Скачать Клаустрофобы через торрент http://img16.lostpic.net/2019/04/10/7fea85b5805e1d46f5f5e63c8fa6d2f9.jpg Скачать фильм Клаустрофобы через торрент бесплантно в хорошем качестве Описание: Получив от таинственной организации приглашение сыграть в квест, победитель которого получит солидную сумму, шестеро незнакомых ... 9.9 10 10
Info! Золотая раздача, скачанное не засчитывается.
Торрент: Зарегистрирован [2019-04-10 18:27] · скачан: 415 раз
Статус: √ проверено
Размер: 2.55 GB
Как cкачать? Как скачать Клаустрофобы через торрент | qTorrent

% Раздел Тема Автор DL S | L
Фильмы (HD 720p, 1080p) (48-60 fps) [ 12.27 GB ] Клаустрофобы / Escape Room [2019 BDRip 1080p 60 fps] sheker187 Скачать
1 | 0
Фильмы 2019-2020 [DVDrip, WEB-DLRip, HDrip] (DUB, MVO) [ 1.46 GB ] Клаустрофобы / Escape Room [2019 BDRip] - [] Twi7ter Скачать
23 | 0
Фильмы 2019-2020 [DVDrip, WEB-DLRip, HDrip] (DUB, MVO) [ 710 MB ] Клаустрофобы / Escape Room [2019 HDRip ""] coc900 Скачать
1 | 0
Фильмы 2019-2020 [DVDrip, WEB-DLRip, HDrip] (DUB, MVO) [ 1.42 GB ] Клаустрофобы / Escape Room [2019 BDRip] bober100 Скачать
19 | 1
Фильмы [HD 720p, 1080p] (Хороший звук DUB, MVO) [ 4.06 GB ] Клаустрофобы / Escape Room [2019 BDRip 720p] bober100 Скачать
1 | 0
Фильмы (WEB-DL 720p, 1080p) [ 4.68 GB ] Клаустрофобы / Escape Room [2019 WEB-DL 1080p] bober100 Скачать
1 | 0
Фильмы 2019-2020 [DVDrip, WEB-DLRip, HDrip] (DUB, MVO) [ 2.09 GB ] Клаустрофобы / Escape Room [2019 BDRip-AVC] DUB [] - ExKinoRay Enigma2010 Скачать
30 | 0

28-11-2019 20:33  

Отключить всю рекламу на сайте

10-04-2019 19:17 Клаустрофобы Скачать торрент  

бюджет - $9 000 000 и при этом сборы в мире - $153 411 208 вот это понимаю окупился фильм pb.wtf



11-04-2019 15:27 Клаустрофобы Скачать торрент  

Как фильм то?pb.wtf



15-04-2019 18:21 Клаустрофобы Скачать торрент  

Андрюха777 писал(а):

Как фильм то?

--добротный
,загадки типа кубаpb.wtf



    Дорогой пользователь! Огромная просьба, поблагодарите релизера, оцените раздачу и оставьте свои комментарий, если Вы скачали Клаустрофобы через торрент бесплатно! Внесите свою лепту в развитие PiratBit!
    Комментировать посты могут только пользователи прошедшие не сложную регистрацию
    Показать сообщения:    

    Клаустрофобы через торрент
    Скачать бесплатно Клаустрофобы
    Клаустрофобы скачать торрент
    Клаустрофобы смотреть онлайн
    Cкачать фильм Клаустрофобы бесплатно
    Клаустрофобы скачать торрент в хорошем качестве
    Клаустрофобы смотреть онлайн бесплатно в хорошем качестве


    Вы не можете начинать темы
    Вы не можете отвечать на сообщения
    Вы не можете редактировать свои сообщения
    Вы не можете удалять свои сообщения
    Вы не можете голосовать в опросах
    Вы не можете прикреплять файлы к сообщениям
    Вы можете скачивать файлы